Скачать через торрент музыку Reservoir Dogs & From Dusk Till Dawn - Music From Quentin Tarantinos Motion Pictures - 1997, FLAC бесплатно без регистрации torrent

Статистика раздачи
Размер:  421 MB   |    Зарегистрирован:  7 лет 1 месяц   |    .torrent скачан:  74 раза   |   
Раздают:  1  
   
загрузка...
 
Автор Сообщение

Galfimbul

avatar Galfimbul


Reservoir Dogs & From Dusk Till Dawn - Music From Quentin Tarantino's Motion Pictures

Жанр: Soundtrack, Score
Год выпуска диска: 1997
Производитель диска: Russia
Аудио кодек: FLAC
Тип рипа: tracks+.cue
Битрейт аудио: lossless
Продолжительность: 73.50
Трэклист:
Reservoir Dogs
01 - And now little green bag... (dialogue) - Music from Quentin Tarantino films
02 - Little green bag - The George Baker Selection
03 - Rock flock of five (dialogue) - Music from Quentin Tarantino films
04 - Hooked on a feeling - Blue Suede
05 - Bohemiath (dialogue) - Music from Quentin Tarantino films
06 - I gotcha - Joe Tex
07 - Magic carpet ride - Bedlam
08 - Madonna speech (dialogue) - Music from Quentin Tarantino films
09 - Fool for love - Sandy Rogers
10 - Super sounds (dialogue) - Music from Quentin Tarantino films
11 - Stuck in the middle with you - Stealers Wheel
12 - Harvest moon - Bedlam
13 - Let's get a taco (dialogue) - Music from Quentin Tarantino films
14 - Keep on truckin' (dialogue) - Music from Quentin Tarantino films
15 - Coconut - Harry Nilsson
16 - Home of rock (dialogue) - Music from Quentin Tarantino films
From Dusk Till Dawn
17 - Everybody be cool (dialogue) - Music from Quentin Tarantino films
18 - Dark night - The Blasters
19 - Mexican blackbird - ZZ Top
20 - Texas funeral - John Wayne
21 - Foolish heart - The Mavericks
22 - Would you do me a favour (dialogue) - Music from Quentin Tarantino films
23 - Dengue woman blues - Jimmie Vaughan
24 - Torquay - The Leftovers
25 - She's just killing me - ZZ Top
26 - Chet's speech (dialogue) - Music from Quentin Tarantino films
27 - Angry cockroaches (Cucarachas enojadas) - Tito & Tarantula
28 - After dark - Tito & Tarantula
29 - Willie the Wimp (and his Cadillac coffin) - Stevie Ray Vaughan and Double Trouble
30 - Kill the band (dialogue) - Music from Quentin Tarantino films
Exact Audio Copy V0.99 prebeta 5 from 4. May 2009

EAC extraction logfile from 19. December 2009, 11:26

Various / Reservoir Dogs (1-16) / From Dusk Till Dawn (17-30)

Used drive : _NEC DVD_RW ND-4551A Adapter: 0 ID: 0

Read mode : Secure
Utilize accurate stream : Yes
Defeat audio cache : Yes
Make use of C2 pointers : No

Read offset correction : 48
Overread into Lead-In and Lead-Out : No
Fill up missing offset samples with silence : Yes
Delete leading and trailing silent blocks : No
Null samples used in CRC calculations : Yes
Used interface : Native Win32 interface for Win NT & 2000
Gap handling : Appended to previous track

Used output format : User Defined Encoder
Selected bitrate : 128 kBit/s
Quality : High
Add ID3 tag : No
Command line compressor : c:\Totalcmd\Utilites\Audio\EAC\Flac\flac.exe
Additional command line options : -8 -V -T "ARTIST=%a" -T "TITLE=%t" -T "ALBUM=%g" -T "DATE=%y" -T "TRACKNUMBER=%n" -T "GENRE=%m" %s

TOC of the extracted CD

Track | Start | Length | Start sector | End sector
---------------------------------------------------------
1 | 0:00.00 | 0:17.57 | 0 | 1331
2 | 0:17.57 | 3:17.30 | 1332 | 16136
3 | 3:35.12 | 0:13.25 | 16137 | 17136
4 | 3:48.37 | 2:55.63 | 17137 | 30324
5 | 6:44.25 | 0:36.12 | 30325 | 33036
6 | 7:20.37 | 2:30.00 | 33037 | 44286
7 | 9:50.37 | 5:12.33 | 44287 | 67719
8 | 15:02.70 | 1:01.10 | 67720 | 72304
9 | 16:04.05 | 3:27.70 | 72305 | 87899
10 | 19:32.00 | 0:20.25 | 87900 | 89424
11 | 19:52.25 | 3:26.10 | 89425 | 104884
12 | 23:18.35 | 2:39.70 | 104885 | 116879
13 | 25:58.30 | 1:04.70 | 116880 | 121749
14 | 27:03.25 | 0:18.17 | 121750 | 123116
15 | 27:21.42 | 3:53.08 | 123117 | 140599
16 | 31:14.50 | 0:07.25 | 140600 | 141149
17 | 31:22.00 | 0:05.67 | 141150 | 141591
18 | 31:27.67 | 3:50.13 | 141592 | 158854
19 | 35:18.05 | 3:04.45 | 158855 | 172699
20 | 38:22.50 | 2:33.65 | 172700 | 184239
21 | 40:56.40 | 3:34.15 | 184240 | 200304
22 | 44:30.55 | 0:12.70 | 200305 | 201274
23 | 44:43.50 | 6:25.70 | 201275 | 230219
24 | 51:09.45 | 2:43.30 | 230220 | 242474
25 | 53:53.00 | 4:58.07 | 242475 | 264831
26 | 58:51.07 | 0:44.18 | 264832 | 268149
27 | 59:35.25 | 5:16.62 | 268150 | 291911
28 | 64:52.12 | 4:13.30 | 291912 | 310916
29 | 69:05.42 | 4:36.10 | 310917 | 331626
30 | 73:41.52 | 0:08.23 | 331627 | 332249

Track 1

Filename C:\Reservoir Dogs & From Dusk Till Dawn - Quentin Tarantino's\01 - And now little green bag... (dialogue) - Music from Quentin Tarantino films.wav

Pre-gap length 0:00:02.00

Peak level 20.4 %
Track quality 100.0 %
Test CRC 5BA00D36
Copy CRC 5BA00D36
Copy OK

Track 2

Filename C:\Reservoir Dogs & From Dusk Till Dawn - Quentin Tarantino's\02 - Little green bag - The George Baker Selection.wav

Pre-gap length 0:00:00.93

Peak level 62.9 %
Track quality 100.0 %
Test CRC 07039C83
Copy CRC 07039C83
Copy OK

Track 3

Filename C:\Reservoir Dogs & From Dusk Till Dawn - Quentin Tarantino's\03 - Rock flock of five (dialogue) - Music from Quentin Tarantino films.wav

Pre-gap length 0:00:01.33

Peak level 16.5 %
Track quality 100.0 %
Test CRC 73502EB2
Copy CRC 73502EB2
Copy OK

Track 4

Filename C:\Reservoir Dogs & From Dusk Till Dawn - Quentin Tarantino's\04 - Hooked on a feeling - Blue Suede.wav

Pre-gap length 0:00:01.41

Peak level 68.0 %
Track quality 100.0 %
Test CRC 9FA4D55A
Copy CRC 9FA4D55A
Copy OK

Track 5

Filename C:\Reservoir Dogs & From Dusk Till Dawn - Quentin Tarantino's\05 - Bohemiath (dialogue) - Music from Quentin Tarantino films.wav

Pre-gap length 0:00:03.24

Peak level 17.7 %
Track quality 99.7 %
Test CRC 16440033
Copy CRC 16440033
Copy OK

Track 6

Filename C:\Reservoir Dogs & From Dusk Till Dawn - Quentin Tarantino's\06 - I gotcha - Joe Tex.wav

Pre-gap length 0:00:01.00

Peak level 74.8 %
Track quality 100.0 %
Test CRC 7836F408
Copy CRC 7836F408
Copy OK

Track 7

Filename C:\Reservoir Dogs & From Dusk Till Dawn - Quentin Tarantino's\07 - Magic carpet ride - Bedlam.wav

Pre-gap length 0:00:01.80

Peak level 67.9 %
Track quality 100.0 %
Test CRC 597026ED
Copy CRC 597026ED
Copy OK

Track 8

Filename C:\Reservoir Dogs & From Dusk Till Dawn - Quentin Tarantino's\08 - Madonna speech (dialogue) - Music from Quentin Tarantino films.wav

Pre-gap length 0:00:01.00

Peak level 17.6 %
Track quality 100.0 %
Test CRC EDF90762
Copy CRC EDF90762
Copy OK

Track 9

Filename C:\Reservoir Dogs & From Dusk Till Dawn - Quentin Tarantino's\09 - Fool for love - Sandy Rogers.wav

Pre-gap length 0:00:01.57

Peak level 71.3 %
Track quality 100.0 %
Test CRC 49050478
Copy CRC 49050478
Copy OK

Track 10

Filename C:\Reservoir Dogs & From Dusk Till Dawn - Quentin Tarantino's\10 - Super sounds (dialogue) - Music from Quentin Tarantino films.wav

Pre-gap length 0:00:02.84

Peak level 12.8 %
Track quality 100.0 %
Test CRC 19BBB520
Copy CRC 19BBB520
Copy OK

Track 11

Filename C:\Reservoir Dogs & From Dusk Till Dawn - Quentin Tarantino's\11 - Stuck in the middle with you - Stealers Wheel.wav

Pre-gap length 0:00:00.84

Peak level 67.4 %
Track quality 100.0 %
Test CRC EB1FE00A
Copy CRC EB1FE00A
Copy OK

Track 12

Filename C:\Reservoir Dogs & From Dusk Till Dawn - Quentin Tarantino's\12 - Harvest moon - Bedlam.wav

Pre-gap length 0:00:01.46

Peak level 52.7 %
Track quality 100.0 %
Test CRC 0F44598C
Copy CRC 0F44598C
Copy OK

Track 13

Filename C:\Reservoir Dogs & From Dusk Till Dawn - Quentin Tarantino's\13 - Let's get a taco (dialogue) - Music from Quentin Tarantino films.wav

Pre-gap length 0:00:03.06

Peak level 18.5 %
Track quality 100.0 %
Test CRC 45A79F26
Copy CRC 45A79F26
Copy OK

Track 14

Filename C:\Reservoir Dogs & From Dusk Till Dawn - Quentin Tarantino's\14 - Keep on truckin' (dialogue) - Music from Quentin Tarantino films.wav

Pre-gap length 0:00:01.57

Peak level 12.1 %
Track quality 100.0 %
Test CRC 0C744E97
Copy CRC 0C744E97
Copy OK

Track 15

Filename C:\Reservoir Dogs & From Dusk Till Dawn - Quentin Tarantino's\15 - Coconut - Harry Nilsson.wav

Peak level 52.2 %
Track quality 99.9 %
Test CRC 719A9D3B
Copy CRC 719A9D3B
Copy OK

Track 16

Filename C:\Reservoir Dogs & From Dusk Till Dawn - Quentin Tarantino's\16 - Home of rock (dialogue) - Music from Quentin Tarantino films.wav

Pre-gap length 0:00:03.26

Peak level 13.0 %
Track quality 98.5 %
Test CRC 89C45ACA
Copy CRC 89C45ACA
Copy OK

Track 17

Filename C:\Reservoir Dogs & From Dusk Till Dawn - Quentin Tarantino's\17 - Everybody be cool (dialogue) - Music from Quentin Tarantino films.wav

Pre-gap length 0:00:02.60

Peak level 65.6 %
Track quality 100.0 %
Test CRC 58CF7037
Copy CRC 58CF7037
Copy OK

Track 18

Filename C:\Reservoir Dogs & From Dusk Till Dawn - Quentin Tarantino's\18 - Dark night - The Blasters.wav

Pre-gap length 0:00:00.22

Peak level 71.0 %
Track quality 100.0 %
Test CRC 923FA5AD
Copy CRC 923FA5AD
Copy OK

Track 19

Filename C:\Reservoir Dogs & From Dusk Till Dawn - Quentin Tarantino's\19 - Mexican blackbird - ZZ Top.wav

Pre-gap length 0:00:00.96

Peak level 64.9 %
Track quality 99.9 %
Test CRC 3D5AC699
Copy CRC 3D5AC699
Copy OK

Track 20

Filename C:\Reservoir Dogs & From Dusk Till Dawn - Quentin Tarantino's\20 - Texas funeral - John Wayne.wav

Peak level 69.1 %
Track quality 100.0 %
Test CRC DCC2C7A3
Copy CRC DCC2C7A3
Copy OK

Track 21

Filename C:\Reservoir Dogs & From Dusk Till Dawn - Quentin Tarantino's\21 - Foolish heart - The Mavericks.wav

Peak level 64.2 %
Track quality 99.9 %
Test CRC 65CDDAB8
Copy CRC 65CDDAB8
Copy OK

Track 22

Filename C:\Reservoir Dogs & From Dusk Till Dawn - Quentin Tarantino's\22 - Would you do me a favour (dialogue) - Music from Quentin Tarantino films.wav

Pre-gap length 0:00:01.40

Peak level 17.4 %
Track quality 99.1 %
Test CRC 78074982
Copy CRC 78074982
Copy OK

Track 23

Filename C:\Reservoir Dogs & From Dusk Till Dawn - Quentin Tarantino's\23 - Dengue woman blues - Jimmie Vaughan.wav

Peak level 70.8 %
Track quality 99.3 %
Test CRC FF931833
Copy CRC FF931833
Copy OK

Track 24

Filename C:\Reservoir Dogs & From Dusk Till Dawn - Quentin Tarantino's\24 - Torquay - The Leftovers.wav

Pre-gap length 0:00:01.26

Peak level 65.2 %
Track quality 99.5 %
Test CRC C39C011F
Copy CRC C39C011F
Copy OK

Track 25

Filename C:\Reservoir Dogs & From Dusk Till Dawn - Quentin Tarantino's\25 - She's just killing me - ZZ Top.wav

Pre-gap length 0:00:01.10

Peak level 75.1 %
Track quality 99.7 %
Test CRC C5A52E4E
Copy CRC C5A52E4E
Copy OK

Track 26

Filename C:\Reservoir Dogs & From Dusk Till Dawn - Quentin Tarantino's\26 - Chet's speech (dialogue) - Music from Quentin Tarantino films.wav

Pre-gap length 0:00:01.20

Peak level 50.7 %
Track quality 100.0 %
Test CRC 759737D3
Copy CRC 759737D3
Copy OK

Track 27

Filename C:\Reservoir Dogs & From Dusk Till Dawn - Quentin Tarantino's\27 - Angry cockroaches (Cucarachas enojadas) - Tito & Tarantula.wav

Pre-gap length 0:00:00.33

Peak level 69.9 %
Track quality 99.3 %
Test CRC 85557B81
Copy CRC 85557B81
Copy OK

Track 28

Filename C:\Reservoir Dogs & From Dusk Till Dawn - Quentin Tarantino's\28 - After dark - Tito & Tarantula.wav

Pre-gap length 0:00:01.53

Peak level 67.6 %
Track quality 99.5 %
Test CRC BBEC43C6
Copy CRC BBEC43C6
Copy OK

Track 29

Filename C:\Reservoir Dogs & From Dusk Till Dawn - Quentin Tarantino's\29 - Willie the Wimp (and his Cadillac coffin) - Stevie Ray Vaughan and Double Trouble.wav

Pre-gap length 0:00:01.22

Peak level 65.9 %
Track quality 99.4 %
Test CRC 5C49210B
Copy CRC 5C49210B
Copy OK

Track 30

Filename C:\Reservoir Dogs & From Dusk Till Dawn - Quentin Tarantino's\30 - Kill the band (dialogue) - Music from Quentin Tarantino films.wav

Pre-gap length 0:00:00.62

Peak level 7.4 %
Track quality 99.1 %
Test CRC 7B102541
Copy CRC 7B102541
Copy OK

No errors occurred

End of status report


Трекер:  [ 07-Июл-2011 22:23 ]

  

Скачать .torrent

Размер .torrent файла 36 KB


Размер: 421 MB
Хэш (hash) релиза: 4f2d0a91ca666fe2f4e0800f13babab1437482c7

Еще никто не оставлял запись к записи скачать торрент Reservoir Dogs & From Dusk Till Dawn - Music From Quentin Tarantinos Motion Pictures - 1997, FLAC . Будь первым!

!Обратная связь