Скачать через торрент музыку Светлячок Firefly бесплатно без регистрации torrent

Статистика раздачи
Размер:  326 MB   |    Зарегистрирован:  7 лет 4 месяца   |    .torrent скачан:  52 раза   |   
Раздают:  1  
   
загрузка...
 
Автор Сообщение

Galfimbul

avatar Galfimbul


Светлячок / Firefly
Music by Greg Edmonson
Theme by Joss Whedon

Жанр: Score | Год выпуска диска: 2005 | Производитель диска: Varèse Sarabande
Аудио кодек: FLAC | Тип рипа: tracks+.cue | Битрейт аудио: lossless
Продолжительность: 01:00:28
Источник: Waffles.FM


Трэклист:
01. Firefly - Main Title [00:52]
02. Big Bar Fight [01:56]
03. Heart of Gold Montage [02:10]
04. Whitefall / Book [02:20]
05. Early Takes Serenity [02:36]
06. The Funeral [02:36]
07. River's Perception / Saffron [02:14]
08. Mal Fights Niska / Back Home [01:54]
09. River Tricks Early [03:30]
10. River Understands Simon [02:04]
11. Leaving / Caper / Spaceball [02:39]
12. River's Afraid / Niska / Torture [03:21]
13. In My Bunk / Jayne's Statue / Boom [02:28]
14. Inara's Suite [03:29]
15. Out of Gas / Empty Derelict [01:50]
16. Book's Hair / Ready for Battle [01:59]
17. Tears / River's Eyes [0:59]
18. Cows / New Dress / My Crew [02:11]
19. Boarding the Serenity / Derelict [02:02]
20. Burgess Kills / Captain & Ship [03:26]
21. Saved / Isn't Home? / Reavers [02:55]
22. Reavers Chase Serenity [03:22]
23. River's Dance [01:50]
24. Inside the Tam House [02:22]
25. Dying Ship / Naked Mal [02:10]
 
Exact Audio Copy V0.99 prebeta 4 from 23. January 2008

EAC extraction logfile from 11. May 2009, 14:36

Greg Edmonson / Firefly OST

Used drive : PIONEER DVDRW DVR-K17B Adapter: 1 ID: 0

Read mode : SecureUtilize accurate stream : YesDefeat audio cache : YesMake use of C2 pointers : No

Read offset correction : 48Overread into Lead-In and Lead-Out : NoFill up missing offset samples with silence : YesDelete leading and trailing silent blocks : NoNull samples used in CRC calculations : YesUsed interface : Native Win32 interface for Win NT & 2000Gap handling : Appended to previous track

Used output format : User Defined EncoderSelected bitrate : 768 kBit/sQuality : HighAdd ID3 tag : NoCommand line compressor : C:\Program Files\Exact Audio Copy\FLAC\FLAC.EXEAdditional command line options : -V -8 -T "artist=%a" -T "title=%t" -T "album=%g" -T "date=%y" -T "tracknumber=%n" -T "genre=%m" %s

TOC of the extracted CD

Track | Start | Length | Start sector | End sector --------------------------------------------------------- 1 | 0:00.00 | 0:52.20 | 0 | 3919 2 | 0:52.20 | 1:56.72 | 3920 | 12691 3 | 2:49.17 | 2:10.58 | 12692 | 22499 4 | 5:00.00 | 2:20.35 | 22500 | 33034 5 | 7:20.35 | 2:36.17 | 33035 | 44751 6 | 9:56.52 | 2:36.10 | 44752 | 56461 7 | 12:32.62 | 2:14.65 | 56462 | 66576 8 | 14:47.52 | 1:54.30 | 66577 | 75156 9 | 16:42.07 | 3:30.30 | 75157 | 90936 10 | 20:12.37 | 2:04.13 | 90937 | 100249 11 | 22:16.50 | 2:39.12 | 100250 | 112186 12 | 24:55.62 | 3:21.25 | 112187 | 127286 13 | 28:17.12 | 2:28.55 | 127287 | 138441 14 | 30:45.67 | 3:29.63 | 138442 | 154179 15 | 34:15.55 | 1:50.40 | 154180 | 162469 16 | 36:06.20 | 1:59.32 | 162470 | 171426 17 | 38:05.52 | 1:59.58 | 171427 | 180409 18 | 40:05.35 | 2:11.47 | 180410 | 190281 19 | 42:17.07 | 2:02.15 | 190282 | 199446 20 | 44:19.22 | 3:26.48 | 199447 | 214944 21 | 47:45.70 | 2:55.72 | 214945 | 228141 22 | 50:41.67 | 3:22.25 | 228142 | 243316 23 | 54:04.17 | 1:50.68 | 243317 | 251634 24 | 55:55.10 | 2:22.20 | 251635 | 262304 25 | 58:17.30 | 2:10.50 | 262305 | 272104

Track 1

Filename C:\AudioRips\Greg Edmonson - 2005 - Firefly OST [FLAC]\01 - Firefly - Main Title.wav

Pre-gap length 0:00:02.00

Peak level 65.1 % Track quality 100.0 % Test CRC 15CDC0B3 Copy CRC 15CDC0B3 Accurately ripped (confidence 19) [791BF8A2] Copy OK

Track 2

Filename C:\AudioRips\Greg Edmonson - 2005 - Firefly OST [FLAC]\02 - Big Bar Fight.wav

Peak level 88.9 % Track quality 100.0 % Test CRC 9981BC20 Copy CRC 9981BC20 Accurately ripped (confidence 19) [9926842E] Copy OK

Track 3

Filename C:\AudioRips\Greg Edmonson - 2005 - Firefly OST [FLAC]\03 - Heart of Gold Montage.wav

Pre-gap length 0:00:02.27

Peak level 86.1 % Track quality 100.0 % Test CRC A999F7A9 Copy CRC A999F7A9 Accurately ripped (confidence 19) [72CC9BF7] Copy OK

Track 4

Filename C:\AudioRips\Greg Edmonson - 2005 - Firefly OST [FLAC]\04 - Whitefall , Book.wav

Peak level 92.7 % Track quality 99.9 % Test CRC 74F62AC4 Copy CRC 74F62AC4 Accurately ripped (confidence 19) [E26AF4FB] Copy OK

Track 5

Filename C:\AudioRips\Greg Edmonson - 2005 - Firefly OST [FLAC]\05 - Early Takes Serenity.wav

Pre-gap length 0:00:03.60

Peak level 87.5 % Track quality 100.0 % Test CRC 33C54836 Copy CRC 33C54836 Accurately ripped (confidence 19) [4F8FBE2F] Copy OK

Track 6

Filename C:\AudioRips\Greg Edmonson - 2005 - Firefly OST [FLAC]\06 - The Funeral.wav

Pre-gap length 0:00:02.12

Peak level 97.9 % Track quality 100.0 % Test CRC ABA417EF Copy CRC ABA417EF Accurately ripped (confidence 19) [4464E614] Copy OK

Track 7

Filename C:\AudioRips\Greg Edmonson - 2005 - Firefly OST [FLAC]\07 - River's Perception , Saffron.wav

Pre-gap length 0:00:02.37

Peak level 92.0 % Track quality 100.0 % Test CRC 5FB164EF Copy CRC 5FB164EF Accurately ripped (confidence 19) [EE4BEFAE] Copy OK

Track 8

Filename C:\AudioRips\Greg Edmonson - 2005 - Firefly OST [FLAC]\08 - Mal Fights Niska , Back Home.wav

Peak level 81.4 % Track quality 100.0 % Test CRC 25C29D4E Copy CRC 25C29D4E Accurately ripped (confidence 19) [D1C426EB] Copy OK

Track 9

Filename C:\AudioRips\Greg Edmonson - 2005 - Firefly OST [FLAC]\09 - River Tricks Early.wav

Pre-gap length 0:00:01.60

Peak level 85.0 % Track quality 100.0 % Test CRC F602A30B Copy CRC F602A30B Accurately ripped (confidence 19) [A9923A44] Copy OK

Track 10

Filename C:\AudioRips\Greg Edmonson - 2005 - Firefly OST [FLAC]\10 - River Understands Simon.wav

Pre-gap length 0:00:01.40

Peak level 52.6 % Track quality 99.9 % Test CRC 70FD7E8B Copy CRC 70FD7E8B Accurately ripped (confidence 19) [0876928C] Copy OK

Track 11

Filename C:\AudioRips\Greg Edmonson - 2005 - Firefly OST [FLAC]\11 - Leaving , Caper , Spaceball.wav

Pre-gap length 0:00:01.30

Peak level 84.7 % Track quality 100.0 % Test CRC 8D3B09D2 Copy CRC 8D3B09D2 Accurately ripped (confidence 19) [4E14F520] Copy OK

Track 12

Filename C:\AudioRips\Greg Edmonson - 2005 - Firefly OST [FLAC]\12 - River's Afraid , Niska , Torture.wav

Pre-gap length 0:00:02.02

Peak level 77.9 % Track quality 100.0 % Test CRC 143BA5F6 Copy CRC 143BA5F6 Accurately ripped (confidence 19) [0E7BF344] Copy OK

Track 13

Filename C:\AudioRips\Greg Edmonson - 2005 - Firefly OST [FLAC]\13 - In my Bunk , Jayne's Statue , Boom.wav

Pre-gap length 0:00:01.57

Peak level 76.0 % Track quality 99.9 % Test CRC D7958885 Copy CRC D7958885 Accurately ripped (confidence 19) [132DE1D5] Copy OK

Track 14

Filename C:\AudioRips\Greg Edmonson - 2005 - Firefly OST [FLAC]\14 - Inara's Suite.wav

Pre-gap length 0:00:02.05

Peak level 37.0 % Track quality 99.9 % Test CRC AB2E9E46 Copy CRC AB2E9E46 Accurately ripped (confidence 19) [4DEDE7A9] Copy OK

Track 15

Filename C:\AudioRips\Greg Edmonson - 2005 - Firefly OST [FLAC]\15 - Out of Gas , Empty Derelict.wav

Pre-gap length 0:00:02.30

Peak level 88.5 % Track quality 100.0 % Test CRC 0C7FA5C9 Copy CRC 0C7FA5C9 Accurately ripped (confidence 19) [D43D5321] Copy OK

Track 16

Filename C:\AudioRips\Greg Edmonson - 2005 - Firefly OST [FLAC]\16 - Book's Hair , Ready for Battle.wav

Pre-gap length 0:00:01.55

Peak level 72.8 % Track quality 100.0 % Test CRC 082331C6 Copy CRC 082331C6 Accurately ripped (confidence 19) [A4F92D3B] Copy OK

Track 17

Filename C:\AudioRips\Greg Edmonson - 2005 - Firefly OST [FLAC]\17 - Tears , River's Eyes.wav

Pre-gap length 0:00:01.60

Peak level 97.1 % Track quality 100.0 % Test CRC F3648559 Copy CRC F3648559 Accurately ripped (confidence 19) [D6CE9D82] Copy OK

Track 18

Filename C:\AudioRips\Greg Edmonson - 2005 - Firefly OST [FLAC]\18 - Cows , New Dress , My Crew.wav

Pre-gap length 0:00:03.43

Peak level 88.7 % Track quality 100.0 % Test CRC DD6CB3D2 Copy CRC DD6CB3D2 Accurately ripped (confidence 19) [D3425D99] Copy OK

Track 19

Filename C:\AudioRips\Greg Edmonson - 2005 - Firefly OST [FLAC]\19 - Boarding the Serenity , Derelict.wav

Peak level 92.4 % Track quality 99.9 % Test CRC 5D4C8068 Copy CRC 5D4C8068 Accurately ripped (confidence 19) [642502C7] Copy OK

Track 20

Filename C:\AudioRips\Greg Edmonson - 2005 - Firefly OST [FLAC]\20 - Burgess Kills , Captain & Ship.wav

Pre-gap length 0:00:01.57

Peak level 95.4 % Track quality 100.0 % Test CRC 17D3CE56 Copy CRC 17D3CE56 Accurately ripped (confidence 19) [EA9FDD4B] Copy OK

Track 21

Filename C:\AudioRips\Greg Edmonson - 2005 - Firefly OST [FLAC]\21 - Saved , Isn't Home , Reavers.wav

Pre-gap length 0:00:02.13

Peak level 99.9 % Track quality 99.9 % Test CRC F92C85FA Copy CRC F92C85FA Accurately ripped (confidence 19) [42D3887B] Copy OK

Track 22

Filename C:\AudioRips\Greg Edmonson - 2005 - Firefly OST [FLAC]\22 - Reavers Chase Serenity.wav

Pre-gap length 0:00:02.22

Peak level 66.5 % Track quality 100.0 % Test CRC CC6A00EA Copy CRC CC6A00EA Accurately ripped (confidence 19) [B233BF2E] Copy OK

Track 23

Filename C:\AudioRips\Greg Edmonson - 2005 - Firefly OST [FLAC]\23 - River's Dance.wav

Pre-gap length 0:00:01.52

Peak level 77.0 % Track quality 99.9 % Test CRC 881C3FAB Copy CRC 881C3FAB Accurately ripped (confidence 19) [E5AFDFD9] Copy OK

Track 24

Filename C:\AudioRips\Greg Edmonson - 2005 - Firefly OST [FLAC]\24 - Inside the Tam House.wav

Pre-gap length 0:00:02.28

Peak level 71.9 % Track quality 100.0 % Test CRC F20D5768 Copy CRC F20D5768 Accurately ripped (confidence 19) [150427D7] Copy OK

Track 25

Filename C:\AudioRips\Greg Edmonson - 2005 - Firefly OST [FLAC]\25 - Dying Ship , Naked Mal.wav

Pre-gap length 0:00:02.28

Peak level 85.2 % Track quality 100.0 % Test CRC C8F16345 Copy CRC C8F16345 Accurately ripped (confidence 18) [0292AE57] Copy OK

All tracks accurately ripped

No errors occurred

End of status report


Трекер:  [ 07-Июл-2011 22:23 ]

  

Скачать .torrent

Размер .torrent файла 15 KB


Размер: 326 MB
Хэш (hash) релиза: aad06815763c513c915d7eb69eecc162d1666e75

Торренты, похожие на Светлячок Firefly скачать торрент

Форум Название Автор Размер S L Добавлен
Саундтреки к фильмам и мультфильмам (mp3) ·· (Soundtrack) Светлячок / Firefly - 2005, MP3, 320 kbps Galfimbul 145291583139 MB 0 0 1292265291

21:34

13-Дек-10

Саундтреки к фильмам и мультфильмам (mp3) ·· (Score) Светлячки в саду / Fireflies in the garden (Javier Navarrete) - 2008, 320 kbps Galfimbul 10012620595 MB 0 0 1496053370

13:22

29-Май-17

Саундтреки ·· (Score) Светлячки в саду / Fireflies in the Garden (by Jane Antonia Cornish) - 2011, MP3, 320 kbps Umakiro 6860489465 MB 0 0 1332153720

13:42

19-Мар-12

Еще никто не оставлял запись к записи скачать торрент Светлячок Firefly . Будь первым!

!Обратная связь