Скачать через торрент музыку Julee Cruise бесплатно без регистрации torrent

Статистика раздачи
Размер:  73 MB   |    Зарегистрирован:  7 лет 10 месяцев   |    .torrent скачан:  74 раза   |   
Раздают:  1  
   
загрузка...
 
Автор Сообщение

AqvaGen


Julee Cruise (Джули Круз) - Falling (The Theme From Twin Peaks) (Single)



Жанр: Dream-Pop, Trip-Hop
Год выпуска диска: 1990
Производитель диска: Германия
Аудио кодек: APE
Тип рипа: image+.cue
Битрейт аудио: lossless
Продолжительность: 00:14:12

Трэклист:
01. Falling
02. Twin Peaks Theme (Instrumental)
03. Floating
Exact Audio Copy V0.99 prebeta 4 from 23. January 2008

Отчёт EAC об извлечении, выполненном 23. февраля 2010, 9:57

Julee Cruise / Falling (Single)

Дисковод: HL-DT-STDVD-RW_GSA-H41N Adapter: 0 ID: 0

Режим чтения : Достоверность
Использование точного потока : Да
Отключение кэша аудио : Да
Использование указателей C2 : Нет

Коррекция смещения при чтении : 667
Способность читать области Lead-in и Lead-out : Нет
Заполнение пропущенных сэмплов тишиной : Да
Удаление блоков с тишиной в начале и конце : Нет
При вычислениях CRC использовались нулевые сэмплы : Да
Интерфейс : Установленный внешний ASPI-интерфейс

Выходной формат : Внутренние WAV-операции
Формат сэмплов : 44.100 Гц; 16 бит; стерео

TOC извлечённого CD

Трек | Старт | Длительность | Начальный сектор | Конечный сектор
---------------------------------------------------------------------
1 | 0:00.00 | 4:14.60 | 0 | 19109
2 | 4:14.60 | 5:05.45 | 19110 | 42029
3 | 9:20.30 | 4:52.05 | 42030 | 63934

Характеристики диапазона извлечения и сообщения об ошибках

Выбранный диапазон

Имя файла E:\Lossless\Julee Cruise\Falling (The Theme From Twin Peaks) (Single) (1990)\Julee Cruise - Falling (The Theme From Twin Peaks) (Single) (1990).wav

Пиковый уровень 95.9 %
Качество диапазона 99.9 %
CRC копии 1486D5C6
Копирование... OK

Ошибок не произошло

Конец отчёта


Трекер:  [ 11-Янв-2011 14:40 ]

  

Скачать .torrent

Размер .torrent файла 12 KB


Размер: 73 MB
Хэш (hash) релиза: d212215d044eef77f5518348b15fef7be7021644

Торренты, похожие на Julee Cruise скачать торрент

Форум Название Автор Размер S L Добавлен
Электронная музыка (mp3) ·· (Experimental, Alternative, Post-Rock) Julee Cruise & Pluramon - Live in St.Petersburg, Platforma Club, 2005.03.19, MP3, 320 kbps Galfimbul 196374279187 MB 0 0 1421445074

00:51

17-Янв-15

bot

Топик был перенесен в форум Саундтреки к фильмам и мультфильмам (lossless)

Перенес AqvaGen

Хотите добавить комментарий к записи скачать торрент Julee Cruise

!Обратная связь