Скачать через торрент музыку The Terminator: The Definite Edition Терминатор бесплатно без регистрации torrent

Статистика раздачи
Размер:  312 MB   |    Зарегистрирован:  7 лет 10 месяцев   |    .torrent скачан:  97 раз   |   
Раздают:  1  
   
загрузка...
 
Автор Сообщение

AqvaGen


The Terminator: The Definite Edition / Терминатор

Жанр: Score
Композитор: Brad Fiedel
Год выпуска диска: 1994
Производитель диска: США
Аудио кодек: FLAC
Тип рипа: tracks+.cue
Битрейт аудио: lossless
Продолжительность: 1:12:13

Треклист:

01 - Brad Fiedel - Theme From 'The Terminator' (4:17)
02 - Brad Fiedel - 'The Terminator' Main Title (2:17)
03 - Brad Fiedel - The Terminator's Arrival (4:57)
04 - Brad Fiedel - Reese Chased (3:51)
05 - Brad Fiedel - Sarah On Her Motorbike (0:39)
06 - Brad Fiedel - Gun Shop - Reese In Alley (1:31)
07 - Brad Fiedel - Sarah In The Bar (1:53)
08 - Brad Fiedel - Tech Noir - Alley Chase (7:38)
09 - Brad Fiedel - Garage Chase (6:52)
10 - Brad Fiedel - Arm & Eye Surgery (3:20)
11 - Brad Fiedel - Police Station - Escape From Police Station (4:49)
12 - Brad Fiedel - Future Flashback - Terminator Infiltration (4:18)
13 - Brad Fiedel - Conversation By The Window - Love Scene (3:45)
14 - Brad Fiedel - Tunnel Chase (3:39)
15 - Brad Fiedel - Death By Fire - Terminator Gets Up (3:13)
16 - Brad Fiedel - Factory Chase (3:58)
17 - Brad Fiedel - Reese's Death - Terminator Sits Up - 'You're Terminated!' (3:28)
18 - Brad Fiedel - Sarah's Destiny - The Coming Storm (3:04)
19 - Brad Fiedel - Theme From 'The Terminator' [August 29th, 1997, Judgement Day Remix] (4:44)
 
Exact Audio Copy V0.99 prebeta 4 from 23. January 2008

EAC extraction logfile from 7. June 2008, 22:18

Fiedel, Brad / The Terminator [The Definitive Edition]

Used drive : TSSTcorpDVD-ROM TS-H352C Adapter: 1 ID: 1

Read mode : SecureUtilize accurate stream : YesDefeat audio cache : YesMake use of C2 pointers : No

Read offset correction : 6Overread into Lead-In and Lead-Out : NoFill up missing offset samples with silence : YesDelete leading and trailing silent blocks : NoNull samples used in CRC calculations : YesUsed interface : Installed external ASPI interfaceGap handling : Appended to previous track

Used output format : User Defined EncoderSelected bitrate : 192 kBit/sQuality : HighAdd ID3 tag : NoCommand line compressor : C:\Program Files\TotalAudioConverter\flac.exeAdditional command line options : -8 -A tukey(0.25) -A gauss(0.1875) -b 4096 -V -T "artist=%a" -T "title=%t" -T "album=%g" -T "date=%y" -T "tracknumber=%n" -T "genre=%m" %s --sector-align

TOC of the extracted CD

Track | Start | Length | Start sector | End sector --------------------------------------------------------- 1 | 0:00.00 | 4:16.42 | 0 | 19241 2 | 4:16.42 | 2:17.25 | 19242 | 29541 3 | 6:33.67 | 4:57.00 | 29542 | 51816 4 | 11:30.67 | 3:50.63 | 51817 | 69129 5 | 15:21.55 | 0:38.65 | 69130 | 72044 6 | 16:00.45 | 1:30.50 | 72045 | 78844 7 | 17:31.20 | 1:52.52 | 78845 | 87296 8 | 19:23.72 | 7:38.25 | 87297 | 121671 9 | 27:02.22 | 6:52.00 | 121672 | 152571 10 | 33:54.22 | 3:19.40 | 152572 | 167536 11 | 37:13.62 | 4:49.18 | 167537 | 189229 12 | 42:03.05 | 4:18.32 | 189230 | 208611 13 | 46:21.37 | 3:45.08 | 208612 | 225494 14 | 50:06.45 | 3:38.47 | 225495 | 241891 15 | 53:45.17 | 3:13.23 | 241892 | 256389 16 | 56:58.40 | 3:57.55 | 256390 | 274219 17 | 60:56.20 | 3:28.35 | 274220 | 289854 18 | 64:24.55 | 3:04.25 | 289855 | 303679 19 | 67:29.05 | 4:44.27 | 303680 | 325006

Track 1

Filename N:\Music\The Terminator [The Definitive Edition]\01 - Theme from 'The Terminator'.wav

Pre-gap length 0:00:02.00

Peak level 82.6 % Track quality 100.0 % Test CRC D886F3E0 Copy CRC D886F3E0 Copy OK

Track 2

Filename N:\Music\The Terminator [The Definitive Edition]\02 - 'The Terminator' Main Title.wav

Peak level 84.3 % Track quality 100.0 % Test CRC 917D4C48 Copy CRC 917D4C48 Copy OK

Track 3

Filename N:\Music\The Terminator [The Definitive Edition]\03 - The Terminator's Arrival.wav

Peak level 88.4 % Track quality 100.0 % Test CRC BD2D165F Copy CRC BD2D165F Copy OK

Track 4

Filename N:\Music\The Terminator [The Definitive Edition]\04 - Reese Chased.wav

Peak level 89.2 % Track quality 100.0 % Test CRC 24CA71AB Copy CRC 24CA71AB Copy OK

Track 5

Filename N:\Music\The Terminator [The Definitive Edition]\05 - Sarah on Her Motorbike.wav

Peak level 78.6 % Track quality 99.7 % Test CRC 1954BB33 Copy CRC 1954BB33 Copy OK

Track 6

Filename N:\Music\The Terminator [The Definitive Edition]\06 - Gun Shop - Reese in Alley.wav

Peak level 76.8 % Track quality 99.8 % Test CRC 3A596A25 Copy CRC 3A596A25 Copy OK

Track 7

Filename N:\Music\The Terminator [The Definitive Edition]\07 - Sarah in the Bar.wav

Peak level 62.4 % Track quality 100.0 % Test CRC 56FD2470 Copy CRC 56FD2470 Copy OK

Track 8

Filename N:\Music\The Terminator [The Definitive Edition]\08 - Tech Noir - Alley Chase.wav

Peak level 90.4 % Track quality 100.0 % Test CRC C762FE5D Copy CRC C762FE5D Copy OK

Track 9

Filename N:\Music\The Terminator [The Definitive Edition]\09 - Garage Chase.wav

Pre-gap length 0:00:00.01

Peak level 92.2 % Track quality 100.0 % Test CRC 311F098A Copy CRC 311F098A Copy OK

Track 10

Filename N:\Music\The Terminator [The Definitive Edition]\10 - Arm & Eye Surgery.wav

Peak level 46.9 % Track quality 100.0 % Test CRC 25F72FB8 Copy CRC 25F72FB8 Copy OK

Track 11

Filename N:\Music\The Terminator [The Definitive Edition]\11 - Police Station - Escape from Police Station.wav

Peak level 88.6 % Track quality 99.9 % Test CRC A12B0D0E Copy CRC A12B0D0E Copy OK

Track 12

Filename N:\Music\The Terminator [The Definitive Edition]\12 - Future Flashback - Terminator Infiltration.wav

Peak level 86.9 % Track quality 100.0 % Test CRC 86D89F96 Copy CRC 86D89F96 Copy OK

Track 13

Filename N:\Music\The Terminator [The Definitive Edition]\13 - Conversation by the Window - Love Scene.wav

Peak level 88.1 % Track quality 99.9 % Test CRC 741F2CF6 Copy CRC 741F2CF6 Copy OK

Track 14

Filename N:\Music\The Terminator [The Definitive Edition]\14 - Tunnel Chase.wav

Peak level 91.3 % Track quality 100.0 % Test CRC 72292C23 Copy CRC 72292C23 Copy OK

Track 15

Filename N:\Music\The Terminator [The Definitive Edition]\15 - Death by Fire - Terminator Gets Up.wav

Peak level 91.4 % Track quality 100.0 % Test CRC 1E7159EF Copy CRC 1E7159EF Copy OK

Track 16

Filename N:\Music\The Terminator [The Definitive Edition]\16 - Factory Chase.wav

Peak level 81.6 % Track quality 99.9 % Test CRC C20DF5B8 Copy CRC C20DF5B8 Copy OK

Track 17

Filename N:\Music\The Terminator [The Definitive Edition]\17 - Reese's Death - Terminator Sits Up - 'You're Terminated!'.wav

Peak level 91.6 % Track quality 100.0 % Test CRC 3F01720C Copy CRC 3F01720C Copy OK

Track 18

Filename N:\Music\The Terminator [The Definitive Edition]\18 - Sarah's Destiny - The Coming Storm.wav

Peak level 44.2 % Track quality 100.0 % Test CRC A73BA574 Copy CRC A73BA574 Copy OK

Track 19

Filename N:\Music\The Terminator [The Definitive Edition]\19 - Theme from 'The Terminator' (August 29th, 1997, Judgement Day ReMix).wav

Peak level 91.7 % Track quality 100.0 % Test CRC 486FA239 Copy CRC 486FA239 Copy OK

No errors occurred

End of status report
 
REM GENRE SoundtrackREM DATE 1984REM DISCID 0810ED13REM COMMENT "ExactAudioCopy v0.99pb4"PERFORMER "Fiedel, Brad"TITLE "The Terminator [The Definitive Edition]"FILE "01 - Theme From 'The Terminator'.wav" WAVE TRACK 01 AUDIO TITLE "Theme from 'The Terminator'" PERFORMER "Fiedel, Brad" INDEX 01 00:00:00FILE "02 - 'The Terminator' Main Title.wav" WAVE TRACK 02 AUDIO TITLE "'The Terminator' Main Title" PERFORMER "Fiedel, Brad" INDEX 01 00:00:00FILE "03 - The Terminator's Arrival.wav" WAVE TRACK 03 AUDIO TITLE "The Terminator's Arrival" PERFORMER "Fiedel, Brad" INDEX 01 00:00:00FILE "04 - Reese Chased.wav" WAVE TRACK 04 AUDIO TITLE "Reese Chased" PERFORMER "Fiedel, Brad" INDEX 01 00:00:00FILE "05 - Sarah On Her Motorbike.wav" WAVE TRACK 05 AUDIO TITLE "Sarah on Her Motorbike" PERFORMER "Fiedel, Brad" INDEX 01 00:00:00FILE "06 - Gun Shop # Reese In Alley.wav" WAVE TRACK 06 AUDIO TITLE "Gun Shop - Reese in Alley" PERFORMER "Fiedel, Brad" INDEX 01 00:00:00FILE "07 - Sarah In The Bar.wav" WAVE TRACK 07 AUDIO TITLE "Sarah in the Bar" PERFORMER "Fiedel, Brad" INDEX 01 00:00:00FILE "08 - Tech Noir # Alley Chase.wav" WAVE TRACK 08 AUDIO TITLE "Tech Noir - Alley Chase" PERFORMER "Fiedel, Brad" INDEX 01 00:00:00 TRACK 09 AUDIO TITLE "Garage Chase" PERFORMER "Fiedel, Brad" INDEX 00 07:38:24FILE "09 - Garage Chase.wav" WAVE INDEX 01 00:00:00FILE "10 - Arm & Eye Surgery.wav" WAVE TRACK 10 AUDIO TITLE "Arm & Eye Surgery" PERFORMER "Fiedel, Brad" INDEX 01 00:00:00FILE "11 - Police Station # Escape From Police Station.wav" WAVE TRACK 11 AUDIO TITLE "Police Station - Escape from Police Station" PERFORMER "Fiedel, Brad" INDEX 01 00:00:00FILE "12 - Future Flashback # Terminator Infiltration.wav" WAVE TRACK 12 AUDIO TITLE "Future Flashback - Terminator Infiltration" PERFORMER "Fiedel, Brad" INDEX 01 00:00:00FILE "13 - Conversation By The Window # Love Scene.wav" WAVE TRACK 13 AUDIO TITLE "Conversation by the Window - Love Scene" PERFORMER "Fiedel, Brad" INDEX 01 00:00:00FILE "14 - Tunnel Chase.wav" WAVE TRACK 14 AUDIO TITLE "Tunnel Chase" PERFORMER "Fiedel, Brad" INDEX 01 00:00:00FILE "15 - Death By Fire # Terminator Gets Up.wav" WAVE TRACK 15 AUDIO TITLE "Death by Fire - Terminator Gets Up" PERFORMER "Fiedel, Brad" INDEX 01 00:00:00FILE "16 - Factory Chase.wav" WAVE TRACK 16 AUDIO TITLE "Factory Chase" PERFORMER "Fiedel, Brad" INDEX 01 00:00:00FILE "17 - Reese's Death # Terminator Sits Up # 'You're Terminated!'.wav" WAVE TRACK 17 AUDIO TITLE "Reese's Death - Terminator Sits Up - 'You're Terminated!'" PERFORMER "Fiedel, Brad" INDEX 01 00:00:00FILE "18 - Sarah's Destiny # The Coming Storm.wav" WAVE TRACK 18 AUDIO TITLE "Sarah's Destiny - The Coming Storm" PERFORMER "Fiedel, Brad" INDEX 01 00:00:00FILE "19 - Theme from 'The Terminator' (August 29th, 1997, Judgement Day ReMix).wav" WAVE TRACK 19 AUDIO TITLE "Theme from 'The Terminator' (August 29th, 1997, Judgement Day ReMix)" PERFORMER "Fiedel, Brad" INDEX 01 00:00:00


Трекер:  [ 19-Дек-2010 15:26 ]

  

Скачать .torrent

Размер .torrent файла 14 KB


Размер: 312 MB
Хэш (hash) релиза: d53c2d87f0cea387342f0de9b7efd3854bb7f9cb

Торренты, похожие на The Terminator: The Definite Edition Терминатор скачать торрент

Форум Название Автор Размер S L Добавлен
Саундтреки к фильмам и мультфильмам (mp3) ·· (Soundtrack) Терминатор / The Terminator: The Definitive Edition - 1995, MP3, 320 kbps Galfimbul 174154686166 MB 0 0 1292265555

21:39

13-Дек-10

bot

Топик был перенесен в форум Саундтреки к фильмам и мультфильмам (lossless)

Перенес AqvaGen

Хотите добавить комментарий к записи скачать торрент The Terminator: The Definite Edition Терминатор

!Обратная связь