Скачать через торрент музыку Resident Evil: Music From And Inspired By The Original Motion Picture - 2002, APE бесплатно без регистрации torrent

Статистика раздачи
Размер:  491 MB   |    Зарегистрирован:  6 лет 9 месяцев   |    .torrent скачан:  60 раз   |   
Раздают:  1  
   
загрузка...
 
Автор Сообщение

Galfimbul

avatar Galfimbul


Resident Evil: Music From And Inspired By The Original Motion Picture

Страна: USA
Жанр: Industrial / Techno
Год выпуска: 2002
Формат: APE (image + .cue)
Битрейт аудио: lossless
Продолжительность: 1:12:29
Трэклист:
01. [00:05] Red Queen - Red Queen
02. [03:02] Slipknot - My Plague (New Abuse Mix)
03. [03:50] Marilyn Manson - The Fight Song (Slipknot Remix)
04. [03:22] Coal Chamber - Something Told Me
05. [03:34] The Crystal Method/Name Of The Game (Clean Name) - The Crystal Method/Name Of The Game (Clean Name)
06. [03:35] Adema - Everyone
07. [03:36] Fear Factory - Invisble Wounds (The Suture Mix)
08. [04:04] Static-X - Anything But This
09. [03:39] Rammstein - Halleluja
10. [04:57] Depeche Mode - Dirt
11. [04:27] Ill Nino - What Comes Around (Day Of The Dead Mix)
12. [04:58] Mudvayne - Dig (Everything And Nothing Remix)
13. [05:55] Method Man - Release Yo' Delf (Prodigy Mix)
14. [04:38] Saliva - 800
15. [04:26] Five Pointe O - The Infinity
16. [00:32] The Umbrella Corporation - The Umbrella Corporation
17. [02:10] Marilyn Manson - Resident Evil Main Title Theme
18. [03:51] Marilyn Manson - Seizure Of Power
19. [02:46] Marilyn Manson - Reunion
20. [05:14] Marilyn Manson - Cleansing

Доп. информация: Tracks 1 and 16 are samples from the movie. Tracks 17, 18, 19 and 20 are the movie's score.

http://www.discogs.com/release/135122
Exact Audio Copy V0.99 prebeta 3 from 28. July 2007

Отчёт EAC об извлечении, выполненном 20. апреля 2008, 9:40

Various / Resident Evil: Music From And Inspired By The Original Motion Picture

Дисковод: _NEC DVD_RW ND-4570A Adapter: 1 ID: 0

Режим чтения : Достоверность
Использование точного потока : Да
Отключение кэша аудио : Да
Использование указателей C2 : Нет

Коррекция смещения при чтении : 48
Способность читать области Lead-in и Lead-out : Нет
Заполнение пропущенных сэмплов тишиной : Да
Удаление блоков с тишиной в начале и конце : Нет
При вычислениях CRC использовались нулевые сэмплы : Да
Интерфейс : Установленный внешний ASPI-интерфейс

Выходной формат : Внутренние WAV-операции
Формат сэмплов : 44.100 Гц; 16 бит; стерео

TOC извлечённого CD

Трек | Старт | Длительность | Начальный сектор | Конечный сектор
---------------------------------------------------------------------
1 | 0:00.00 | 0:04.40 | 0 | 339
2 | 0:04.40 | 3:01.55 | 340 | 13969
3 | 3:06.20 | 3:49.47 | 13970 | 31191
4 | 6:55.67 | 3:22.23 | 31192 | 46364
5 | 10:18.15 | 3:33.52 | 46365 | 62391
6 | 13:51.67 | 3:34.48 | 62392 | 78489
7 | 17:26.40 | 3:36.02 | 78490 | 94691
8 | 21:02.42 | 4:04.25 | 94692 | 113016
9 | 25:06.67 | 3:38.65 | 113017 | 129431
10 | 28:45.57 | 4:57.10 | 129432 | 151716
11 | 33:42.67 | 4:27.25 | 151717 | 171766
12 | 38:10.17 | 4:57.40 | 171767 | 194081
13 | 43:07.57 | 5:55.03 | 194082 | 220709
14 | 49:02.60 | 4:37.60 | 220710 | 241544
15 | 53:40.45 | 4:26.17 | 241545 | 261511
16 | 58:06.62 | 0:31.40 | 261512 | 263876
17 | 58:38.27 | 2:09.38 | 263877 | 273589
18 | 60:47.65 | 3:50.50 | 273590 | 290889
19 | 64:38.40 | 2:46.25 | 290890 | 303364
20 | 67:24.65 | 5:13.45 | 303365 | 326884

Характеристики диапазона извлечения и сообщения об ошибках

Выбранный диапазон

Имя файла D:\Music\Lossless Collection\V\Various Artists 2002 Resident Evil - Music From And Inspired By The Original Motion Picture\Various Artists - Resident Evil - Music From And Inspired By The Original Motion Picture.wav

Пиковый уровень 100.0 %
Качество диапазона 100.0 %
CRC копии 62318D42
Копирование... OK

Ошибок не произошло

Конец отчёта
AUDIOCHECKER v2.0 beta (build 457) - by Dester - opdester@freemail.hu
~~~~~~~~~~~~~~~~~~~~~~~~~~~~~~~~~~
-=== DO NOT EDIT THIS FILE! ===-

Path: ...\Various Artists 2002 Resident Evil - Music From And Inspired By The Original Motion Picture

1 -=- Various Artists - Resident Evil - Music From And Inspired By The Original Motion Picture.ape -=- CDDA (100%)

117194068


Трекер:  [ 07-Июл-2011 22:22 ]

  

Скачать .torrent

Размер .torrent файла 41 KB


Размер: 491 MB
Хэш (hash) релиза: 0e687125608305959ecca78f85c53e3b39078b33

Еще никто не оставлял запись к записи скачать торрент Resident Evil: Music From And Inspired By The Original Motion Picture - 2002, APE . Будь первым!

!Обратная связь