Скачать через торрент музыку Мальчишник в Вегасе The Hangover - 2009, FLAC бесплатно без регистрации torrent

Статистика раздачи
Размер:  238 MB   |    Зарегистрирован:  7 лет 4 месяца   |    .torrent скачан:  142 раза   |   
Раздают:  1  
   
загрузка...
 
Автор Сообщение

AqvaGen


Мальчишник в Вегасе / The Hangover

Жанр: Soundtrack
Год выпуска диска: 2009
Производитель диска: USA
Лейбл: New Line Records
Номер по каталогу: NLR39150
Аудио кодек: FLAC
Тип рипа: tracks+.cue
Битрейт аудио: lossless
Продолжительность: 36:58
Сканы: front

Треклист:
01 - El Vez - It's Now or Never
02 - Danzig - Thirteen
03 - The Donnas - Take It Off
04 - The Cramps - Fever
05 - Gene Vincent & His Blue Caps - Wedding Bells (Are Breaking Up That Old Gang of Mine)
06 - Phil Collins - In the Air Tonight
07 - Ed Helms - Stu's Song
08 - Treat Her Right - Rhythm and Booze
09 - The Belle Stars - Iko Iko
10 - Zach Galifianakis - Three Best Friends
11 - Revolution Mother - Ride the Sky II
12 - Dan Finnerty and The Dan Band - Candy Shop

Доп. информация:
 
Exact Audio Copy V0.99 prebeta 4 from 23. January 2008

EAC extraction logfile from 21. April 2010, 22:18

Various Artists / The Hangover

Used drive : TSSTcorpCDDVDW SH-S203B Adapter: 2 ID: 1

Read mode : SecureUtilize accurate stream : YesDefeat audio cache : YesMake use of C2 pointers : No

Read offset correction : 6Overread into Lead-In and Lead-Out : NoFill up missing offset samples with silence : YesDelete leading and trailing silent blocks : NoNull samples used in CRC calculations : YesUsed interface : Native Win32 interface for Win NT & 2000Gap handling : Appended to previous track

Used output format : Internal WAV RoutinesSample format : 44.100 Hz; 16 Bit; Stereo

TOC of the extracted CD

Track | Start | Length | Start sector | End sector --------------------------------------------------------- 1 | 0:00.00 | 5:17.48 | 0 | 23822 2 | 5:17.48 | 4:15.08 | 23823 | 42955 3 | 9:32.56 | 2:58.16 | 42956 | 56321 4 | 12:30.72 | 4:16.64 | 56322 | 75585 5 | 16:47.61 | 2:31.24 | 75586 | 86934 6 | 19:19.10 | 5:31.03 | 86935 | 111762 7 | 24:50.13 | 0:56.52 | 111763 | 116014 8 | 25:46.65 | 2:49.20 | 116015 | 128709 9 | 28:36.10 | 2:51.03 | 128710 | 141537 10 | 31:27.13 | 0:29.24 | 141538 | 143736 11 | 31:56.37 | 2:03.44 | 143737 | 153005 12 | 34:00.06 | 2:58.63 | 153006 | 166418

Track 1

Filename F:\VA - The Hangover (2009) [FLAC] {OST} {New Line Records NLR39150}\01 - El Vez - It's Now or Never.wav

Pre-gap length 0:00:02.00

Peak level 98.8 % Track quality 100.0 % Test CRC C660CD1E Copy CRC C660CD1E Accurately ripped (confidence 2) [08CA4131] Copy OK

Track 2

Filename F:\VA - The Hangover (2009) [FLAC] {OST} {New Line Records NLR39150}\02 - Danzig - Thirteen.wav

Peak level 100.0 % Track quality 100.0 % Test CRC F2C908FC Copy CRC F2C908FC Accurately ripped (confidence 2) [D00B4DEE] Copy OK

Track 3

Filename F:\VA - The Hangover (2009) [FLAC] {OST} {New Line Records NLR39150}\03 - The Donnas - Take It Off.wav

Peak level 97.5 % Track quality 100.0 % Test CRC 94D436F9 Copy CRC 94D436F9 Accurately ripped (confidence 2) [C6756710] Copy OK

Track 4

Filename F:\VA - The Hangover (2009) [FLAC] {OST} {New Line Records NLR39150}\04 - The Cramps - Fever.wav

Peak level 98.3 % Track quality 100.0 % Test CRC 9B99D8A8 Copy CRC 9B99D8A8 Accurately ripped (confidence 2) [9288ABB3] Copy OK

Track 5

Filename F:\VA - The Hangover (2009) [FLAC] {OST} {New Line Records NLR39150}\05 - Gene Vincent & His Blue Caps - Wedding Bells.wav

Peak level 96.7 % Track quality 100.0 % Test CRC B420D044 Copy CRC B420D044 Accurately ripped (confidence 2) [D0761EBB] Copy OK

Track 6

Filename F:\VA - The Hangover (2009) [FLAC] {OST} {New Line Records NLR39150}\06 - Phil Collins - In The Air Tonight.wav

Peak level 98.1 % Track quality 99.9 % Test CRC 106BE325 Copy CRC 106BE325 Accurately ripped (confidence 2) [B1DF10E6] Copy OK

Track 7

Filename F:\VA - The Hangover (2009) [FLAC] {OST} {New Line Records NLR39150}\07 - Ed Helms - Stu's Song.wav

Peak level 98.0 % Track quality 100.0 % Test CRC 8E17CAA5 Copy CRC 8E17CAA5 Accurately ripped (confidence 2) [58FFA6D3] Copy OK

Track 8

Filename F:\VA - The Hangover (2009) [FLAC] {OST} {New Line Records NLR39150}\08 - Treat Her Right - Rhythm And Booze.wav

Peak level 99.4 % Track quality 100.0 % Test CRC 92E10EE3 Copy CRC 92E10EE3 Accurately ripped (confidence 2) [21C7EB4C] Copy OK

Track 9

Filename F:\VA - The Hangover (2009) [FLAC] {OST} {New Line Records NLR39150}\09 - The Belle Stars - Iko Iko.wav

Peak level 98.2 % Track quality 100.0 % Test CRC 9E2839E6 Copy CRC 9E2839E6 Accurately ripped (confidence 2) [66C4EE73] Copy OK

Track 10

Filename F:\VA - The Hangover (2009) [FLAC] {OST} {New Line Records NLR39150}\10 - Zach Galifianakis - Three Best Friends.wav

Peak level 99.8 % Track quality 100.0 % Test CRC 414299A3 Copy CRC 414299A3 Accurately ripped (confidence 2) [153B7E1C] Copy OK

Track 11

Filename F:\VA - The Hangover (2009) [FLAC] {OST} {New Line Records NLR39150}\11 - Revolution Mother - Ride The Sky II.wav

Peak level 98.7 % Track quality 100.0 % Test CRC 33EDA34C Copy CRC 33EDA34C Accurately ripped (confidence 2) [4E1FAFB4] Copy OK

Track 12

Filename F:\VA - The Hangover (2009) [FLAC] {OST} {New Line Records NLR39150}\12 - Dan Finnerty And The Dan Band - Candy Shop.wav

Peak level 100.0 % Track quality 100.0 % Test CRC 4299DB1E Copy CRC 4299DB1E Accurately ripped (confidence 2) [50DC7908] Copy OK

All tracks accurately ripped

No errors occurred

End of status report
AUDIOCHECKER v2.0 beta (build 457) - by Dester - opdester@freemail.hu
~~~~~~~~~~~~~~~~~~~~~~~~~~~~~~~~~~
-=== DO NOT EDIT THIS FILE! ===-

Path: ...\VA - 2009 - The Hangover [FLAC]

01 -=- 01 - El Vez - It's Now or Never.flac -=- CDDA (99%)
02 -=- 02 - Danzig - Thirteen.flac -=- CDDA (99%)
03 -=- 03 - The Donnas - Take It Off.flac -=- CDDA (58%)
04 -=- 04 - The Cramps - Fever.flac -=- CDDA (100%)
05 -=- 05 - Gene Vincent & His Blue Caps - Wedding Bells.flac -=- CDDA (100%)
06 -=- 06 - Phil Collins - In The Air Tonight.flac -=- CDDA (100%)
07 -=- 07 - Ed Helms - Stu's Song.flac -=- CDDA (100%)
08 -=- 08 - Treat Her Right - Rhythm And Booze.flac -=- CDDA (100%)
09 -=- 09 - The Belle Stars - Iko Iko.flac -=- CDDA (100%)
10 -=- 10 - Zach Galifianakis - Three Best Friends.flac -=- CDDA (100%)
11 -=- 11 - Revolution Mother - Ride The Sky II.flac -=- CDDA (100%)
12 -=- 12 - Dan Finnerty And The Dan Band - Candy Shop.flac -=- CDDA (100%)

Summary 96.33% CDDA

106304676
 
REM GENRE SoundtrackREM DATE 2009REM DISCID A808AA0CREM COMMENT "ExactAudioCopy v0.99pb4"PERFORMER "Various Artists"TITLE "The Hangover"FILE "01 - El Vez - It's Now or Never.wav" WAVE TRACK 01 AUDIO TITLE "It's Now or Never" PERFORMER "El Vez" INDEX 01 00:00:00FILE "02 - Danzig - Thirteen.wav" WAVE TRACK 02 AUDIO TITLE "Thirteen" PERFORMER "Danzig" INDEX 01 00:00:00FILE "03 - The Donnas - Take It Off.wav" WAVE TRACK 03 AUDIO TITLE "Take It Off" PERFORMER "The Donnas" INDEX 01 00:00:00FILE "04 - The Cramps - Fever.wav" WAVE TRACK 04 AUDIO TITLE "Fever" PERFORMER "The Cramps" INDEX 01 00:00:00FILE "05 - Gene Vincent & His Blue Caps - Wedding Bells.wav" WAVE TRACK 05 AUDIO TITLE "Wedding Bells" PERFORMER "Gene Vincent & His Blue Caps" INDEX 01 00:00:00FILE "06 - Phil Collins - In The Air Tonight.wav" WAVE TRACK 06 AUDIO TITLE "In The Air Tonight" PERFORMER "Phil Collins" INDEX 01 00:00:00FILE "07 - Ed Helms - Stu's Song.wav" WAVE TRACK 07 AUDIO TITLE "Stu's Song" PERFORMER "Ed Helms" INDEX 01 00:00:00FILE "08 - Treat Her Right - Rhythm And Booze.wav" WAVE TRACK 08 AUDIO TITLE "Rhythm And Booze" PERFORMER "Treat Her Right" INDEX 01 00:00:00FILE "09 - The Belle Stars - Iko Iko.wav" WAVE TRACK 09 AUDIO TITLE "Iko Iko" PERFORMER "The Belle Stars" INDEX 01 00:00:00FILE "10 - Zach Galifianakis - Three Best Friends.wav" WAVE TRACK 10 AUDIO TITLE "Three Best Friends" PERFORMER "Zach Galifianakis" INDEX 01 00:00:00FILE "11 - Revolution Mother - Ride The Sky II.wav" WAVE TRACK 11 AUDIO TITLE "Ride The Sky II" PERFORMER "Revolution Mother" INDEX 01 00:00:00FILE "12 - Dan Finnerty And The Dan Band - Candy Shop.wav" WAVE TRACK 12 AUDIO TITLE "Candy Shop" PERFORMER "Dan Finnerty And The Dan Band" INDEX 01 00:00:00


Трекер:  [ 19-Дек-2010 16:41 ]

  

Скачать .torrent

Размер .torrent файла 20 KB


Размер: 238 MB
Хэш (hash) релиза: c896fd0da63bdc6558bd968df4dde801d678bb93

bot

Топик был перенесен в форум Саундтреки к фильмам и мультфильмам (lossless)

Перенес AqvaGen

Хотите добавить комментарий к записи скачать торрент Мальчишник в Вегасе The Hangover - 2009, FLAC

!Обратная связь