Скачать через торрент музыку Lily Was Here Лили была здесь бесплатно без регистрации torrent

Статистика раздачи
Размер:  220 MB   |    Зарегистрирован:  7 лет 3 месяца   |    .torrent скачан:  120 раз   |   
Раздают:  1  
   
загрузка...
 
Автор Сообщение

AqvaGen


Lily Was Here / Лили была здесь

Жанр: Score
Авторы музыки: David A. Stewart & Candy Dulfer
Год выпуска диска: 1989
Производитель диска: UK / Anxious Records
Аудио кодек: FLAC
Тип рипа: image+.cue
Битрейт аудио: lossless
Продолжительность: 00:45:06.48
Трэклист:
01. Lily Was Here (4:18)
02. The Pink Building (2:51)
03. Lily Robs The Bank (2:32)
04. Toyshop Robbery (3:59)
05. Toys On The Sidewalk (1:05)
06. The Good Hotel (2:05)
07. Second Chance (4:09)
08. Here Comes The Rain Again (6:00)
09. Alone In The City (1:22)
10. Toyshop (Part One) (1:07)
11. The Coffin (4:27)
12. Teletype (1:34)
13. Inside The Pink Building (3:51)
14. Percussion Jam (1:06)
15. Peaches (2:09)
16. Lily Was Here (Reprise) (1:40)
 
Exact Audio Copy V0.99 prebeta 5 from 4. May 2009

Отчёт EAC об извлечении, выполненном 16. января 2010, 21:56

David A. Stewart & Candy Dulfer / Lily Was Here

Дисковод: MATSHITADVD-RAM UJ-832S Adapter: 0 ID: 1

Режим чтения : ДостоверностьИспользование точного потока : ДаОтключение кэша аудио : ДаИспользование указателей C2 : Нет

Коррекция смещения при чтении : 102Способность читать области Lead-in и Lead-out : НетЗаполнение пропущенных сэмплов тишиной : ДаУдаление блоков с тишиной в начале и конце : НетПри вычислениях CRC использовались нулевые сэмплы : ДаИнтерфейс : Встроенный Win32-интерфейс для Win NT/2000

Выходной формат : Внутренние WAV-операцииФормат сэмплов : 44.100 Гц; 16 бит; стерео

TOC извлечённого CD

Трек | Старт | Длительность | Начальный сектор | Конечный сектор --------------------------------------------------------------------- 1 | 0:00.33 | 4:22.62 | 33 | 19744 2 | 4:23.20 | 2:53.28 | 19745 | 32747 3 | 7:16.48 | 2:33.37 | 32748 | 44259 4 | 9:50.10 | 4:02.38 | 44260 | 62447 5 | 13:52.48 | 1:07.02 | 62448 | 67474 6 | 14:59.50 | 2:08.10 | 67475 | 77084 7 | 17:07.60 | 4:13.00 | 77085 | 96059 8 | 21:20.60 | 6:03.38 | 96060 | 123322 9 | 27:24.23 | 1:26.32 | 123323 | 129804 10 | 28:50.55 | 1:08.73 | 129805 | 134977 11 | 29:59.53 | 4:29.72 | 134978 | 155224 12 | 34:29.50 | 1:38.30 | 155225 | 162604 13 | 36:08.05 | 3:52.70 | 162605 | 180074 14 | 40:01.00 | 1:10.33 | 180075 | 185357 15 | 41:11.33 | 2:12.05 | 185358 | 195262 16 | 43:23.38 | 1:43.10 | 195263 | 202997

Характеристики диапазона извлечения и сообщения об ошибках

Выбранный диапазон

Имя файла C:\DSCDLWH89OST\David A. Stewart & Candy Dulfer - Lily Was Here.wav

Пиковый уровень 98.8 % Качество диапазона 99.9 % CRC теста F26BE71A CRC копии F26BE71A Копирование... OK

Ошибок не произошло

AccurateRip: сводка

Трек 1 точное извлечение (доверие 38) [B9E018AA]Трек 2 точное извлечение (доверие 37) [D5307E32]Трек 3 точное извлечение (доверие 37) [4AC66783]Трек 4 точное извлечение (доверие 37) [D5751620]Трек 5 точное извлечение (доверие 37) [C4BF42B6]Трек 6 точное извлечение (доверие 36) [85E35313]Трек 7 точное извлечение (доверие 37) [FA487C08]Трек 8 точное извлечение (доверие 37) [7F56FC55]Трек 9 точное извлечение (доверие 37) [AB53F747]Трек 10 точное извлечение (доверие 37) [3DE65D70]Трек 11 точное извлечение (доверие 37) [4483FA5C]Трек 12 точное извлечение (доверие 36) [9EF45F3C]Трек 13 точное извлечение (доверие 37) [0C6B7A30]Трек 14 точное извлечение (доверие 36) [DFFC5DA5]Трек 15 точное извлечение (доверие 37) [4A2AD276]Трек 16 точное извлечение (доверие 36) [AC73A5DD]

Все треки извлечены точно

Конец отчёта
Альбом "Lily Was Here", является саундтреком к голландскому кинофильму "De Kassière", релиз кинофильма и сингла состоялся в ноябре 1989. Главную героиню фильма Lily (Лилю) сыграла Marion van Thijn (дебют), дочь мэра г.Амстердам в то время.
Музыку к кинофильму написал Dave A. Stewart. Он же пригласил, для исполнения партий саксофона девятнадцатилетнюю никому тогда неизвестную, не имеющую на тот момент ни одного сольного альбома Candy Dulfer. Dave A. Stewart не ожидал, что тендем с Candy и первая мелодия из кинофильма станет мировым хитом №1 (Нидерланды - 5 недель 1 место). Сингл "Lily Was Here" был выпущен в Великобритании, Европе, Соединенных Штатах, где также стал хитом. В Великобритании достиг 6 места. В Штатах, при самой жесточайшей конкуренции на американском рынке, сингл занял 11 место, чего не было со времен Beatles, для европейской музыки в США это триумф.
Такой успех способствовал Candy Dulfer в написании собственного альбома Saxuality. Композицию "Lily Was Here" Candy Dulfer смогла использовать на концертах и альбомных записях только с 1998 года.
"Lily", былa также включена (официально) в музыку к кинофильму Mystery Date и в 11-ом эпизоде 2 сезона сериала Baywatchs.


Трекер:  [ 11-Янв-2011 14:37 ]

  

Скачать .torrent

Размер .torrent файла 18 KB


Размер: 220 MB
Хэш (hash) релиза: 8b5b144eacd1ea104c246427fd88c2aadf2ea768

Торренты, похожие на Lily Was Here Лили была здесь скачать торрент

Форум Название Автор Размер S L Добавлен
Саундтреки к фильмам и мультфильмам (mp3) ·· (Score) Lily Was Here / Лили была здесь (David A. Stewart & Candy Dulfer) - 1989, MP3 (tracks), 320 kbps Galfimbul 108306432103 MB 0 0 1292265895

21:44

13-Дек-10

Саундтреки к фильмам и мультфильмам (lossless) ·· (Score / Smooth Jazz) Лили была здесь / Lily Was Here [CD-Maxi] (by David A. Stewart feat. Candy Dulfer) - 1989, FLAC (image+.cue) lossless Galfimbul 117240257112 MB 0 0 1292268630

22:30

13-Дек-10

bot

Топик был перенесен в форум Саундтреки к фильмам и мультфильмам (lossless)

Перенес AqvaGen

Хотите добавить комментарий к записи скачать торрент Lily Was Here Лили была здесь

!Обратная связь