Скачать через торрент музыку Batman Begins OST Бэтмен: Начало бесплатно без регистрации torrent

Статистика раздачи
Размер:  268 MB   |    Зарегистрирован:  7 лет 4 месяца   |    .torrent скачан:  95 раз   |   
Раздают:  1  
   
загрузка...
 
Автор Сообщение

Galfimbul

avatar Galfimbul


(Score) Бэтмен: Начало / Batman Begins by Hans Zimmer and James Newton Howard

Жанр: Score
Год выпуска диска: 2005
Производитель диска: USA
Аудио кодек: FLAC
Тип рипа: tracks+.cue
Битрейт аудио: lossless
Продолжительность: 1:00:30.760 (160116516 samples)
01. Hans Zimmer & James Newton Howard - Vespertilio (2:52)
02. Hans Zimmer & James Newton Howard - Eptesicus (4:20)
03. Hans Zimmer & James Newton Howard - Myotis (5:46)
04. Hans Zimmer & James Newton Howard - Barbastella (4:45)
05. Hans Zimmer & James Newton Howard - Artibeus (4:20)
06. Hans Zimmer & James Newton Howard - Tadarida (5:06)
07. Hans Zimmer & James Newton Howard - Macrotus (7:36)
08. Hans Zimmer & James Newton Howard - Antrozous (3:59)
09. Hans Zimmer & James Newton Howard - Nycteris (4:26)
10. Hans Zimmer & James Newton Howard - Molossus (4:49)
11. Hans Zimmer & James Newton Howard - Corynorhinus (5:04)
12. Hans Zimmer & James Newton Howard - Lasiurus (7:27)
Exact Audio Copy V0.99 prebeta 4 from 23. January 2008

EAC extraction logfile from 11. June 2008, 3:11

Hans Zimmer & James Newton Howard / Batman Begins Original Soundtrack

Used drive : HP DVD Writer 840x Adapter: 1 ID: 0

Read mode : Secure
Utilize accurate stream : Yes
Defeat audio cache : Yes
Make use of C2 pointers : No

Read offset correction : 102
Overread into Lead-In and Lead-Out : No
Fill up missing offset samples with silence : Yes
Delete leading and trailing silent blocks : No
Null samples used in CRC calculations : Yes
Used interface : Installed external ASPI interface
Gap handling : Appended to previous track

Used output format : User Defined Encoder
Selected bitrate : 192 kBit/s
Quality : High
Add ID3 tag : No
Command line compressor : C:\Program Files\TotalAudioConverter\flac.exe
Additional command line options : -8 -A tukey(0.25) -A gauss(0.1875) -b 4096 -V -T "artist=%a" -T "title=%t" -T "album=%g" -T "date=%y" -T "tracknumber=%n" -T "genre=%m" %s --sector-align

TOC of the extracted CD

Track | Start | Length | Start sector | End sector
---------------------------------------------------------
1 | 0:00.00 | 2:52.36 | 0 | 12935
2 | 2:52.36 | 4:20.05 | 12936 | 32440
3 | 7:12.41 | 5:46.20 | 32441 | 58410
4 | 12:58.61 | 4:45.02 | 58411 | 79787
5 | 17:43.63 | 4:19.44 | 79788 | 99256
6 | 22:03.32 | 5:05.44 | 99257 | 122175
7 | 27:09.01 | 7:35.51 | 122176 | 156351
8 | 34:44.52 | 3:59.10 | 156352 | 174286
9 | 38:43.62 | 4:25.53 | 174287 | 194214
10 | 43:09.40 | 4:49.23 | 194215 | 215912
11 | 47:58.63 | 5:04.33 | 215913 | 238745
12 | 53:03.21 | 7:27.36 | 238746 | 272306

Track 1

Filename N:\Music\Batman Begins\01 - Vespertilio.wav

Pre-gap length 0:00:02.00

Peak level 87.5 %
Track quality 100.0 %
Test CRC 2622862C
Copy CRC 2622862C
Copy OK

Track 2

Filename N:\Music\Batman Begins\02 - Eptesicus.wav

Peak level 55.3 %
Track quality 100.0 %
Test CRC 1DCD9FA4
Copy CRC 1DCD9FA4
Copy OK

Track 3

Filename N:\Music\Batman Begins\03 - Myotis.wav

Peak level 97.7 %
Track quality 100.0 %
Test CRC 56D42373
Copy CRC 56D42373
Copy OK

Track 4

Filename N:\Music\Batman Begins\04 - Barbastella.wav

Peak level 97.7 %
Track quality 100.0 %
Test CRC 14F3D788
Copy CRC 14F3D788
Copy OK

Track 5

Filename N:\Music\Batman Begins\05 - Artibeus.wav

Peak level 97.7 %
Track quality 100.0 %
Test CRC D98D5EF5
Copy CRC D98D5EF5
Copy OK

Track 6

Filename N:\Music\Batman Begins\06 - Tadarida.wav

Peak level 97.7 %
Track quality 100.0 %
Test CRC FE2421B8
Copy CRC FE2421B8
Copy OK

Track 7

Filename N:\Music\Batman Begins\07 - Macrotus.wav

Peak level 97.7 %
Track quality 100.0 %
Test CRC 54141486
Copy CRC 54141486
Copy OK

Track 8

Filename N:\Music\Batman Begins\08 - Antrozous.wav

Peak level 97.7 %
Track quality 100.0 %
Test CRC 7D7A08DC
Copy CRC 7D7A08DC
Copy OK

Track 9

Filename N:\Music\Batman Begins\09 - Nycteris.wav

Peak level 97.7 %
Track quality 100.0 %
Test CRC D63646BD
Copy CRC D63646BD
Copy OK

Track 10

Filename N:\Music\Batman Begins\10 - Molossus.wav

Peak level 97.3 %
Track quality 100.0 %
Test CRC B15495F2
Copy CRC B15495F2
Copy OK

Track 11

Filename N:\Music\Batman Begins\11 - Corynorhinus.wav

Peak level 90.2 %
Track quality 100.0 %
Test CRC 46CB080D
Copy CRC 46CB080D
Copy OK

Track 12

Filename N:\Music\Batman Begins\12 - Lasiurus.wav

Peak level 97.7 %
Track quality 100.0 %
Test CRC 4EE77998
Copy CRC 4EE77998
Copy OK

No errors occurred

End of status report
Duration : 1:00:30.760 (160116516 samples)
Sample Rate : 44100 Hz
Channels : 2
Bits Per Sample : 16
Avg. Bitrate : 620 kbps
Codec : FLAC
Encoding : lossless
Tool : reference libFLAC 1.1.4 20070213
Embedded Cuesheet : no
[Verification date: 16.03.2009 23:57:34]
[Disc ID: 001947fd-00f04bf9-9a0e2e0c]
Track [ CRC ] Status
01 [49beda8d] (02/43) Accurately ripped as in pressing(s) #3
02 [a22f9f7d] (02/43) Accurately ripped as in pressing(s) #3
03 [691ec077] (02/43) Accurately ripped as in pressing(s) #3
04 [66cf38d9] (02/43) Accurately ripped as in pressing(s) #3
05 [1e250fac] (02/43) Accurately ripped as in pressing(s) #3
06 [331b1176] (02/42) Accurately ripped as in pressing(s) #3
07 [a2af37b4] (02/42) Accurately ripped as in pressing(s) #3
08 [54d2d490] (02/42) Accurately ripped as in pressing(s) #3
09 [2f95af88] (02/42) Accurately ripped as in pressing(s) #3
10 [2644a283] (02/42) Accurately ripped as in pressing(s) #3
11 [ec6abe52] (02/42) Accurately ripped as in pressing(s) #3
12 [edef4d46] (02/42) Accurately ripped as in pressing(s) #3
Offsetted by 676:
01 [a1380cd1] (36/43) Accurately ripped as in pressing(s) #2
02 [fe8e6367] (36/43) Accurately ripped as in pressing(s) #2
03 [240558df] (36/43) Accurately ripped as in pressing(s) #2
04 [c5d27188] (36/43) Accurately ripped as in pressing(s) #2
05 [1084bd25] (36/43) Accurately ripped as in pressing(s) #2
06 [cefcc516] (36/42) Accurately ripped as in pressing(s) #2
07 [b0ad5308] (36/42) Accurately ripped as in pressing(s) #2
08 [22be51e3] (36/42) Accurately ripped as in pressing(s) #2
09 [5d1f799d] (36/42) Accurately ripped as in pressing(s) #2
10 [c65bc392] (36/42) Accurately ripped as in pressing(s) #2
11 [c04414ff] (36/42) Accurately ripped as in pressing(s) #2
12 [2cf7fa4f] (36/42) Accurately ripped as in pressing(s) #2
Offsetted by 682:
01 [00c9568d] (05/43) Accurately ripped as in pressing(s) #1
02 [3b962bc1] (05/43) Accurately ripped as in pressing(s) #1
03 [1572fb4d] (05/43) Accurately ripped as in pressing(s) #1
04 [f9dfc7ae] (05/43) Accurately ripped as in pressing(s) #1
05 [f2b985a7] (05/43) Accurately ripped as in pressing(s) #1
06 [32823647] (04/42) Accurately ripped as in pressing(s) #1
07 [10f7565a] (04/42) Accurately ripped as in pressing(s) #1
08 [306c3a97] (04/42) Accurately ripped as in pressing(s) #1
09 [5e074434] (04/42) Accurately ripped as in pressing(s) #1
10 [77604574] (04/42) Accurately ripped as in pressing(s) #1
11 [8c7e0c89] (04/42) Accurately ripped as in pressing(s) #1
12 [1cbbd726] (04/42) Accurately ripped as in pressing(s) #1

Track [ CRC32 ] [W/O NULL] [ LOG ]
-- [1943ECC0] [B274DEF6]
01 [2622862C] [026F29B4] CRC32
02 [1DCD9FA4] [B69F22DB] CRC32
03 [56D42373] [A82A1B57] CRC32
04 [14F3D788] [798A8B4E] CRC32
05 [D98D5EF5] [C7F6FA4C] CRC32
06 [FE2421B8] [ECC4ACC5] CRC32
07 [54141486] [645FFD80] CRC32
08 [7D7A08DC] [03DDE009] CRC32
09 [D63646BD] [B3B71843] CRC32
10 [B15495F2] [D008A0A2] CRC32
11 [46CB080D] [53153DE7] CRC32
12 [4EE77998] [40D586CB] CRC32


Трекер:  [ 07-Июл-2011 22:21 ]

  

Скачать .torrent

Размер .torrent файла 12 KB


Размер: 268 MB
Хэш (hash) релиза: d8f8b2b8a30de7cb3531fe91f559f1ffc2e2c306

Еще никто не оставлял запись к записи скачать торрент Batman Begins OST Бэтмен: Начало . Будь первым!

!Обратная связь