Скачать через торрент музыку Michael Andrews & VA - Donnie Darko Донни Дарко бесплатно без регистрации torrent

Статистика раздачи
Размер:  480 MB   |    Зарегистрирован:  7 лет 4 месяца   |    .torrent скачан:  134 раза   |   
Раздают:  1  
   
загрузка...
 
Автор Сообщение

Galfimbul

avatar Galfimbul


Michael Andrews & VA - Donnie Darko / Донни Дарко (2CD: OST + Score)

Жанр: Soundtrack / Score
Год выпуска диска: 2004
Производитель диска: США
Аудио кодек: FLAC
Тип рипа: tracks + .cue
Битрейт аудио: lossless
Продолжительность: 42:13 + 37:33
Источник: What.CD

CD 1 (OST)

01 - INXS - Never Tear Us Apart (3:05)
02 - Tears For Fears - Head Over Heels (4:17)
03 - The Church - Under The Milky Way (4:58)
04 - Sam Bauer & Gerard Bauer - Lucid Memory (0:46)
05 - Gerard Bauer & Mike Bauer - Lucid Assembly (0:52)
06 - Giulio Caccini & Paul Pritchard - Ave Maria (2:57)
07 - Steve Baker & Carmen Dave - For Whom The Bell Tolls (3:13)
08 - Quito Colayco & Tony Hertz - Show Me [Part 1] (2:05)
09 - Duran Duran - Notorious (4:01)
10 - Oingo Boingo - Stay (3:38)
11 - Joy Division - Love Will Tear Us Apart (3:24)
12 - Echo & The Bunnymen - The Killing Moon (5:55)
13 - Michael Andrews & Gary Jules - Mad World (3:03)

CD 2 (Score)

01 - Michael Andrews - Carpathian Ridge (1:35)
02 - Michael Andrews - The Tangent Universe (1:50)
03 - Michael Andrews - The Artifact & Living (2:30)
04 - Michael Andrews - Middlesex Times (1:42)
05 - Michael Andrews - Manipulated Living (2:09)
06 - Michael Andrews - Philosophy Of Time Travel (2:02)
07 - Michael Andrews - Liquid Spear Waltz (1:32)
08 - Michael Andrews - Gretchen Ross (0:51)
09 - Michael Andrews - Burn It To The Ground (1:58)
10 - Michael Andrews - Slipping Away (1:17)
11 - Michael Andrews - Rosie Darko (1:26)
12 - Michael Andrews - Cellar Door (1:04)
13 - Michael Andrews - Ensurance Trap (3:12)
14 - Michael Andrews - Waltz In The 4th Dimension (2:47)
15 - Michael Andrews - Time Travel (3:02)
16 - Michael Andrews - Did You Know Him? (1:47)
17 - Michael Andrews - Mad World (3:08)
18 - Michael Andrews - Mad World [Alternate Mix] (3:40)
 
EAC extraction logfile from 20. March 2007, 19:50 for CDVarious / Donnie Darko (Original Soundtrack)

Used drive : PLEXTOR DVDR PX-760A Adapter: 0 ID: 2Read mode : Secure with NO C2, accurate stream, disable cacheRead offset correction : 30Overread into Lead-In and Lead-Out : No

Used output format : C:\flac-1.1.2-win\bin\flac.exe (User Defined Encoder) 320 kBit/s Additional command line options : -5 -V -T "ARTIST=%a" -T "TITLE=%t" -T "ALBUM=%g" -T "DATE=%y" -T "TRACKNUMBER=%n" -T "GENRE=%m" -T "COMMENT=EAC Flac 1.1.2 -5" %s

Other options : Fill up missing offset samples with silence : Yes Delete leading and trailing silent blocks : No Native Win32 interface for Win NT & 2000

Track 1 Filename H:\Music\FLAC - My FLAC Rips\Donnie Darko - Original Soundtrack & Score (2004) [FLAC] {2 CD}\Disc 1 of 2\01 - INXS - Never Tear Us Apart.wav

Pre-gap length 0:00:02.00

Peak level 96.6 % Track quality 100.0 % Test CRC 729D614E Copy CRC 729D614E Copy OK

Track 2 Filename H:\Music\FLAC - My FLAC Rips\Donnie Darko - Original Soundtrack & Score (2004) [FLAC] {2 CD}\Disc 1 of 2\02 - Tears For Fears - Head Over Heels.wav

Pre-gap length 0:00:01.46

Peak level 98.8 % Track quality 100.0 % Test CRC FF9B9E0A Copy CRC FF9B9E0A Copy OK

Track 3 Filename H:\Music\FLAC - My FLAC Rips\Donnie Darko - Original Soundtrack & Score (2004) [FLAC] {2 CD}\Disc 1 of 2\03 - The Church - Under The Milky Way.wav

Pre-gap length 0:00:01.73

Peak level 96.6 % Track quality 100.0 % Test CRC 18509419 Copy CRC 18509419 Copy OK

Track 4 Filename H:\Music\FLAC - My FLAC Rips\Donnie Darko - Original Soundtrack & Score (2004) [FLAC] {2 CD}\Disc 1 of 2\04 - Sam Bauer & Gerard Bauer - Lucid Memory.wav

Pre-gap length 0:00:01.40

Peak level 96.6 % Track quality 100.0 % Test CRC CA20F555 Copy CRC CA20F555 Copy OK

Track 5 Filename H:\Music\FLAC - My FLAC Rips\Donnie Darko - Original Soundtrack & Score (2004) [FLAC] {2 CD}\Disc 1 of 2\05 - Gerard Bauer & Mike Bauer - Lucid Assembly.wav

Pre-gap length 0:00:01.10

Peak level 98.0 % Track quality 100.0 % Test CRC 826A00D0 Copy CRC 826A00D0 Copy OK

Track 6 Filename H:\Music\FLAC - My FLAC Rips\Donnie Darko - Original Soundtrack & Score (2004) [FLAC] {2 CD}\Disc 1 of 2\06 - Giulio Caccini & Paul Pritchard - Ave Maria.wav

Pre-gap length 0:00:01.66

Peak level 96.6 % Track quality 100.0 % Test CRC 92BCAF30 Copy CRC 92BCAF30 Copy OK

Track 7 Filename H:\Music\FLAC - My FLAC Rips\Donnie Darko - Original Soundtrack & Score (2004) [FLAC] {2 CD}\Disc 1 of 2\07 - Steve Baker & Carmen Dave - For Whom The Bell Tolls.wav

Pre-gap length 0:00:01.29

Peak level 85.7 % Track quality 100.0 % Test CRC 2A85998F Copy CRC 2A85998F Copy OK

Track 8 Filename H:\Music\FLAC - My FLAC Rips\Donnie Darko - Original Soundtrack & Score (2004) [FLAC] {2 CD}\Disc 1 of 2\08 - Quito Colayco & Tony Hertz - Show Me (Part 1).wav

Pre-gap length 0:00:01.56

Peak level 96.6 % Track quality 100.0 % Test CRC 7B533C64 Copy CRC 7B533C64 Copy OK

Track 9 Filename H:\Music\FLAC - My FLAC Rips\Donnie Darko - Original Soundtrack & Score (2004) [FLAC] {2 CD}\Disc 1 of 2\09 - Duran Duran - Notorious.wav

Pre-gap length 0:00:02.42

Peak level 98.0 % Track quality 100.0 % Test CRC 0634468C Copy CRC 0634468C Copy OK

Track 10 Filename H:\Music\FLAC - My FLAC Rips\Donnie Darko - Original Soundtrack & Score (2004) [FLAC] {2 CD}\Disc 1 of 2\10 - Oingo Boingo - Stay.wav

Pre-gap length 0:00:01.69

Peak level 98.0 % Track quality 100.0 % Test CRC FD53E832 Copy CRC FD53E832 Copy OK

Track 11 Filename H:\Music\FLAC - My FLAC Rips\Donnie Darko - Original Soundtrack & Score (2004) [FLAC] {2 CD}\Disc 1 of 2\11 - Joy Division - Love Will Tear Us Apart.wav

Pre-gap length 0:00:01.90

Peak level 98.8 % Track quality 100.0 % Test CRC D7CA3A53 Copy CRC D7CA3A53 Copy OK

Track 12 Filename H:\Music\FLAC - My FLAC Rips\Donnie Darko - Original Soundtrack & Score (2004) [FLAC] {2 CD}\Disc 1 of 2\12 - Echo & The Bunnymen - The Killing Moon.wav

Pre-gap length 0:00:01.53

Peak level 98.0 % Track quality 100.0 % Test CRC 53A2AA74 Copy CRC 53A2AA74 Copy OK

Track 13 Filename H:\Music\FLAC - My FLAC Rips\Donnie Darko - Original Soundtrack & Score (2004) [FLAC] {2 CD}\Disc 1 of 2\13 - Michael Andrews & Gary Jules - Mad World.wav

Pre-gap length 0:00:09.96

Peak level 98.1 % Track quality 100.0 % Test CRC 0B431A0B Copy CRC 0B431A0B Copy OK

No errors occured

End of status report
 
EAC extraction logfile from 20. March 2007, 20:35 for CDMichael Andrews / Donnie Darko (Score)

Used drive : PLEXTOR DVDR PX-760A Adapter: 0 ID: 2Read mode : Secure with NO C2, accurate stream, disable cacheRead offset correction : 30Overread into Lead-In and Lead-Out : No

Used output format : C:\flac-1.1.2-win\bin\flac.exe (User Defined Encoder) 320 kBit/s Additional command line options : -5 -V -T "ARTIST=%a" -T "TITLE=%t" -T "ALBUM=%g" -T "DATE=%y" -T "TRACKNUMBER=%n" -T "GENRE=%m" -T "COMMENT=EAC Flac 1.1.2 -5" %s

Other options : Fill up missing offset samples with silence : Yes Delete leading and trailing silent blocks : No Native Win32 interface for Win NT & 2000

Track 1 Filename H:\Music\FLAC - My FLAC Rips\Donnie Darko - Original Soundtrack & Score (2004) [FLAC] {2 CD}\Disc 2 of 2\01 - Carpathian Ridge.wav

Pre-gap length 0:00:02.00

Peak level 99.2 % Track quality 100.0 % Test CRC 6B085888 Copy CRC 6B085888 Copy OK

Track 2 Filename H:\Music\FLAC - My FLAC Rips\Donnie Darko - Original Soundtrack & Score (2004) [FLAC] {2 CD}\Disc 2 of 2\02 - The Tangent Universe.wav

Pre-gap length 0:00:03.86

Peak level 99.2 % Track quality 100.0 % Test CRC 2EDB5123 Copy CRC 2EDB5123 Copy OK

Track 3 Filename H:\Music\FLAC - My FLAC Rips\Donnie Darko - Original Soundtrack & Score (2004) [FLAC] {2 CD}\Disc 2 of 2\03 - The Artifact & Living.wav

Pre-gap length 0:00:02.56

Peak level 99.2 % Track quality 100.0 % Test CRC 584D22EB Copy CRC 584D22EB Copy OK

Track 4 Filename H:\Music\FLAC - My FLAC Rips\Donnie Darko - Original Soundtrack & Score (2004) [FLAC] {2 CD}\Disc 2 of 2\04 - Middlesex Times.wav

Pre-gap length 0:00:02.82

Peak level 99.2 % Track quality 100.0 % Test CRC CC19F4D6 Copy CRC CC19F4D6 Copy OK

Track 5 Filename H:\Music\FLAC - My FLAC Rips\Donnie Darko - Original Soundtrack & Score (2004) [FLAC] {2 CD}\Disc 2 of 2\05 - Manipulated Living.wav

Pre-gap length 0:00:02.46

Peak level 99.2 % Track quality 100.0 % Test CRC E36A8EBF Copy CRC E36A8EBF Copy OK

Track 6 Filename H:\Music\FLAC - My FLAC Rips\Donnie Darko - Original Soundtrack & Score (2004) [FLAC] {2 CD}\Disc 2 of 2\06 - Philosophy of Time Travel.wav

Pre-gap length 0:00:03.57

Peak level 99.2 % Track quality 100.0 % Test CRC 5B67DF90 Copy CRC 5B67DF90 Copy OK

Track 7 Filename H:\Music\FLAC - My FLAC Rips\Donnie Darko - Original Soundtrack & Score (2004) [FLAC] {2 CD}\Disc 2 of 2\07 - Liquid Spear Waltz.wav

Pre-gap length 0:00:02.60

Peak level 99.2 % Track quality 100.0 % Test CRC AD74F688 Copy CRC AD74F688 Copy OK

Track 8 Filename H:\Music\FLAC - My FLAC Rips\Donnie Darko - Original Soundtrack & Score (2004) [FLAC] {2 CD}\Disc 2 of 2\08 - Gretchen Ross.wav

Pre-gap length 0:00:02.77

Peak level 99.2 % Track quality 99.7 % Test CRC A9B39719 Copy CRC A9B39719 Copy OK

Track 9 Filename H:\Music\FLAC - My FLAC Rips\Donnie Darko - Original Soundtrack & Score (2004) [FLAC] {2 CD}\Disc 2 of 2\09 - Burn It to the Ground.wav

Pre-gap length 0:00:02.24

Peak level 99.2 % Track quality 100.0 % Test CRC 804CBF2B Copy CRC 804CBF2B Copy OK

Track 10 Filename H:\Music\FLAC - My FLAC Rips\Donnie Darko - Original Soundtrack & Score (2004) [FLAC] {2 CD}\Disc 2 of 2\10 - Slipping Away.wav

Pre-gap length 0:00:02.46

Peak level 99.2 % Track quality 100.0 % Test CRC 15E096EC Copy CRC 15E096EC Copy OK

Track 11 Filename H:\Music\FLAC - My FLAC Rips\Donnie Darko - Original Soundtrack & Score (2004) [FLAC] {2 CD}\Disc 2 of 2\11 - Rosie Darko.wav

Pre-gap length 0:00:02.84

Peak level 99.2 % Track quality 99.8 % Test CRC 84B2595F Copy CRC 84B2595F Copy OK

Track 12 Filename H:\Music\FLAC - My FLAC Rips\Donnie Darko - Original Soundtrack & Score (2004) [FLAC] {2 CD}\Disc 2 of 2\12 - Cellar Door.wav

Pre-gap length 0:00:03.10

Peak level 99.2 % Track quality 100.0 % Test CRC 222E1427 Copy CRC 222E1427 Copy OK

Track 13 Filename H:\Music\FLAC - My FLAC Rips\Donnie Darko - Original Soundtrack & Score (2004) [FLAC] {2 CD}\Disc 2 of 2\13 - Ensurance Trap.wav

Pre-gap length 0:00:02.73

Peak level 99.2 % Track quality 100.0 % Test CRC A7D87BE6 Copy CRC A7D87BE6 Copy OK

Track 14 Filename H:\Music\FLAC - My FLAC Rips\Donnie Darko - Original Soundtrack & Score (2004) [FLAC] {2 CD}\Disc 2 of 2\14 - Waltz in the 4th Dimension.wav

Pre-gap length 0:00:03.26

Peak level 99.2 % Track quality 99.9 % Test CRC B7B93F06 Copy CRC B7B93F06 Copy OK

Track 15 Filename H:\Music\FLAC - My FLAC Rips\Donnie Darko - Original Soundtrack & Score (2004) [FLAC] {2 CD}\Disc 2 of 2\15 - Time Travel.wav

Pre-gap length 0:00:03.13

Peak level 99.2 % Track quality 100.0 % Test CRC B135366D Copy CRC B135366D Copy OK

Track 16 Filename H:\Music\FLAC - My FLAC Rips\Donnie Darko - Original Soundtrack & Score (2004) [FLAC] {2 CD}\Disc 2 of 2\16 - Did You Know Him .wav

Pre-gap length 0:00:03.57

Peak level 99.2 % Track quality 100.0 % Test CRC F8B620C9 Copy CRC F8B620C9 Copy OK

Track 17 Filename H:\Music\FLAC - My FLAC Rips\Donnie Darko - Original Soundtrack & Score (2004) [FLAC] {2 CD}\Disc 2 of 2\17 - Mad World.wav

Pre-gap length 0:00:02.09

Peak level 99.2 % Track quality 100.0 % Test CRC 9E8CA3A0 Copy CRC 9E8CA3A0 Copy OK

Track 18 Filename H:\Music\FLAC - My FLAC Rips\Donnie Darko - Original Soundtrack & Score (2004) [FLAC] {2 CD}\Disc 2 of 2\18 - Mad World (alternate mix).wav

Pre-gap length 0:00:04.53

Peak level 99.2 % Track quality 99.9 % Test CRC AEE3A4DE Copy CRC AEE3A4DE Copy OK

No errors occured

End of status report
 
REM GENRE SoundtrackREM DATE 2004TITLE "(OST) Donnie Darko"FILE "01 - INXS - Never Tear Us Apart.flac" WAVE TRACK 01 AUDIO TITLE "Never Tear Us Apart" PERFORMER "INXS" INDEX 01 00:00:00FILE "02 - Tears For Fears - Head Over Heels.flac" WAVE TRACK 02 AUDIO TITLE "Head Over Heels" PERFORMER "Tears For Fears" INDEX 01 00:00:00FILE "03 - The Church - Under The Milky Way.flac" WAVE TRACK 03 AUDIO TITLE "Under The Milky Way" PERFORMER "The Church" INDEX 01 00:00:00FILE "04 - Sam Bauer & Gerard Bauer - Lucid Memory.flac" WAVE TRACK 04 AUDIO TITLE "Lucid Memory" PERFORMER "Sam Bauer & Gerard Bauer" INDEX 01 00:00:00FILE "05 - Gerard Bauer & Mike Bauer - Lucid Assembly.flac" WAVE TRACK 05 AUDIO TITLE "Lucid Assembly" PERFORMER "Gerard Bauer & Mike Bauer" INDEX 01 00:00:00FILE "06 - Giulio Caccini & Paul Pritchard - Ave Maria.flac" WAVE TRACK 06 AUDIO TITLE "Ave Maria" PERFORMER "Giulio Caccini & Paul Pritchard" INDEX 01 00:00:00FILE "07 - Steve Baker & Carmen Dave - For Whom The Bell Tolls.flac" WAVE TRACK 07 AUDIO TITLE "For Whom The Bell Tolls" PERFORMER "Steve Baker & Carmen Dave" INDEX 01 00:00:00FILE "08 - Quito Colayco & Tony Hertz - Show Me [Part 1].flac" WAVE TRACK 08 AUDIO TITLE "Show Me [Part 1]" PERFORMER "Quito Colayco & Tony Hertz" INDEX 01 00:00:00FILE "09 - Duran Duran - Notorious.flac" WAVE TRACK 09 AUDIO TITLE "Notorious" PERFORMER "Duran Duran" INDEX 01 00:00:00FILE "10 - Oingo Boingo - Stay.flac" WAVE TRACK 10 AUDIO TITLE "Stay" PERFORMER "Oingo Boingo" INDEX 01 00:00:00FILE "11 - Joy Division - Love Will Tear Us Apart.flac" WAVE TRACK 11 AUDIO TITLE "Love Will Tear Us Apart" PERFORMER "Joy Division" INDEX 01 00:00:00FILE "12 - Echo & The Bunnymen - The Killing Moon.flac" WAVE TRACK 12 AUDIO TITLE "The Killing Moon" PERFORMER "Echo & The Bunnymen" INDEX 01 00:00:00FILE "13 - Michael Andrews & Gary Jules - Mad World.flac" WAVE TRACK 13 AUDIO TITLE "Mad World" PERFORMER "Michael Andrews & Gary Jules" INDEX 01 00:00:00
 
REM GENRE SoundtrackREM DATE 2004REM DISCID F608CD12REM COMMENT "ExactAudioCopy v0.95b3"PERFORMER "Michael Andrews"TITLE "Donnie Darko (Score)"FILE "01 - Carpathian Ridge.wav" WAVE TRACK 01 AUDIO TITLE "Carpathian Ridge" PERFORMER "Michael Andrews" INDEX 01 00:00:00 TRACK 02 AUDIO TITLE "The Tangent Universe" PERFORMER "Michael Andrews" INDEX 00 01:31:22FILE "02 - The Tangent Universe.wav" WAVE INDEX 01 00:00:00 TRACK 03 AUDIO TITLE "The Artifact & Living" PERFORMER "Michael Andrews" INDEX 00 01:47:68FILE "03 - The Artifact & Living.wav" WAVE INDEX 01 00:00:00 TRACK 04 AUDIO TITLE "Middlesex Times" PERFORMER "Michael Andrews" INDEX 00 02:27:13FILE "04 - Middlesex Times.wav" WAVE INDEX 01 00:00:00 TRACK 05 AUDIO TITLE "Manipulated Living" PERFORMER "Michael Andrews" INDEX 00 01:39:40FILE "05 - Manipulated Living.wav" WAVE INDEX 01 00:00:00 TRACK 06 AUDIO TITLE "Philosophy of Time Travel" PERFORMER "Michael Andrews" INDEX 00 02:05:00FILE "06 - Philosophy of Time Travel.wav" WAVE INDEX 01 00:00:00 TRACK 07 AUDIO TITLE "Liquid Spear Waltz" PERFORMER "Michael Andrews" INDEX 00 01:59:55FILE "07 - Liquid Spear Waltz.wav" WAVE INDEX 01 00:00:00 TRACK 08 AUDIO TITLE "Gretchen Ross" PERFORMER "Michael Andrews" INDEX 00 01:29:52FILE "08 - Gretchen Ross.wav" WAVE INDEX 01 00:00:00 TRACK 09 AUDIO TITLE "Burn It to the Ground" PERFORMER "Michael Andrews" INDEX 00 00:49:17FILE "09 - Burn It to the Ground.wav" WAVE INDEX 01 00:00:00 TRACK 10 AUDIO TITLE "Slipping Away" PERFORMER "Michael Andrews" INDEX 00 01:55:65FILE "10 - Slipping Away.wav" WAVE INDEX 01 00:00:00 TRACK 11 AUDIO TITLE "Rosie Darko" PERFORMER "Michael Andrews" INDEX 00 01:14:32FILE "11 - Rosie Darko.wav" WAVE INDEX 01 00:00:00 TRACK 12 AUDIO TITLE "Cellar Door" PERFORMER "Michael Andrews" INDEX 00 01:22:42FILE "12 - Cellar Door.wav" WAVE INDEX 01 00:00:00 TRACK 13 AUDIO TITLE "Ensurance Trap" PERFORMER "Michael Andrews" INDEX 00 01:01:05FILE "13 - Ensurance Trap.wav" WAVE INDEX 01 00:00:00 TRACK 14 AUDIO TITLE "Waltz in the 4th Dimension" PERFORMER "Michael Andrews" INDEX 00 03:08:65FILE "14 - Waltz in the 4th Dimension.wav" WAVE INDEX 01 00:00:00 TRACK 15 AUDIO TITLE "Time Travel" PERFORMER "Michael Andrews" INDEX 00 02:43:42FILE "15 - Time Travel.wav" WAVE INDEX 01 00:00:00 TRACK 16 AUDIO TITLE "Did You Know Him?" PERFORMER "Michael Andrews" INDEX 00 02:58:25FILE "16 - Did You Know Him .wav" WAVE INDEX 01 00:00:00 TRACK 17 AUDIO TITLE "Mad World" PERFORMER "Michael Andrews" INDEX 00 01:44:55FILE "17 - Mad World.wav" WAVE INDEX 01 00:00:00 TRACK 18 AUDIO TITLE "Mad World (alternate mix)" PERFORMER "Michael Andrews" INDEX 00 03:03:33FILE "18 - Mad World (alternate mix).wav" WAVE INDEX 01 00:00:00
Редкостный тип релиза: OST и Score в одном издании! Спешите качать и слушать: замечательно подобранная музыка, один из лучших современных саундтреков в исполнении Майкла Эндрюса и других различных исполнителей
ПРИЯТНОГО ПРОСЛУШИВАНИЯ!


Трекер:  [ 07-Июл-2011 22:55 ]

  

Скачать .torrent

Размер .torrent файла 22 KB


Размер: 480 MB
Хэш (hash) релиза: 76b2d2df5f5650f83ae991d62a1fe027fa6540e1

Торренты, похожие на Michael Andrews & VA - Donnie Darko Донни Дарко скачать торрент

Форум Название Автор Размер S L Добавлен
Саундтреки к фильмам и мультфильмам (mp3) ·· (Soundtrack / Score) Michael Andrews & VA - Donnie Darko / Донни Дарко (2CD: OST + Score) - 2004, MP3 (tracks), 320 kb/s Galfimbul 191979561183 MB 0 0 1292265066

21:31

13-Дек-10

Еще никто не оставлял запись к записи скачать торрент Michael Andrews & VA - Donnie Darko Донни Дарко . Будь первым!

!Обратная связь