Скачать через торрент музыку Koyaanisqatsi | Коянискаци бесплатно без регистрации torrent

Статистика раздачи
Размер:  370 MB   |    Зарегистрирован:  6 лет 9 месяцев   |    .torrent скачан:  48 раз   |   
Раздают:  1  
   
загрузка...
 
Автор Сообщение

Galfimbul

avatar Galfimbul


Koyaanisqatsi | Коянискаци
complete original soundtrack version
Жанр: Score
Год выпуска диска: 2009
Производитель диска: Orange Mountain Music, USA
Аудио кодек: FLAC
Тип рипа: image+.cue
Битрейт аудио: lossless
Продолжительность: 1:16'22"
Трэклист:
01. Koyaanisqatsi
02. Organic
03. Clouds
04. Resource
05. Vessels
06. Pruitt Igoe
07. Pruitt Igoe Coda
08. SloMo People
09. The Grid Introduction
10. The Grid
11. Microchip
12. Prophecies
13. Translation and Credits

Voice of "Koyaanisqatsi": Albert de Ruiter.
Chorus: The Western Wind Vocal Ensemble.
Keyboards: Michael Riesman.
Saxophone, Flute, Clarinet: Jack Kripl.
Saxophone: Jon Gibson / Richard Peck.
Saxophone, Bass Clarinet: Bob Mintzer.
Piccolo, Flute: Tom Nyfenger.
Trumpet: Lew Soloff / Charles Lewis / Lowell Hershey / Mark Gould / Allan Dean.
French Horn: Sharon Moe / Peter Gordon / Russell Rizner / Brooks Tillotson / Albert Richmond.
Trombone: Bob Smith / Keith O'Quinn.
Bass Trombone: George Flynn.
Trombone: James Pugh.
Tuba: Warren Deck / Samuel Pilafian.
Viola: Jill Jaffe / Sue Pray / Theodore Israel / Jean Dane.
Cello: Seymour Barab / Beverley Lauridsen / Kermit Moore / Frederick Zlotkin.
Bass: John Beal / John Bongiorno.
Conductor: Michael Riesman.

 
Exact Audio Copy V0.99 prebeta 5 from 4. May 2009

Отчёт EAC об извлечении, выполненном 6. сентября 2009, 13:46

Philip Glass / Koyaanisqatsi (complete original soundtrack version)

Дисковод: Optiarc DVD RW AD-7203A Adapter: 4 ID: 1

Режим чтения : ДостоверностьИспользование точного потока : ДаОтключение кэша аудио : ДаИспользование указателей C2 : Нет

Коррекция смещения при чтении : 48Способность читать области Lead-in и Lead-out : НетЗаполнение пропущенных сэмплов тишиной : ДаУдаление блоков с тишиной в начале и конце : НетПри вычислениях CRC использовались нулевые сэмплы : ДаИнтерфейс : Встроенный Win32-интерфейс для Win NT/2000

Выходной формат : Пользовательский кодировщикВыбранный битрейт : 128 kBit/sКачество : ВысокийДобавление ID3-тэга : НетУтилита сжатия : C:\Program Files\FLAC\flac.exeДополнительные параметры : -5 -V %s

TOC извлечённого CD

Трек | Старт | Длительность | Начальный сектор | Конечный сектор --------------------------------------------------------------------- 1 | 0:00.00 | 3:27.06 | 0 | 15530 2 | 3:27.06 | 4:57.31 | 15531 | 37836 3 | 8:24.37 | 4:37.51 | 37837 | 58662 4 | 13:02.13 | 6:36.17 | 58663 | 88379 5 | 19:38.30 | 8:12.61 | 88380 | 125340 6 | 27:51.16 | 7:50.69 | 125341 | 160659 7 | 35:42.10 | 1:17.20 | 160660 | 166454 8 | 36:59.30 | 3:19.46 | 166455 | 181425 9 | 40:19.01 | 3:24.25 | 181426 | 196750 10 | 43:43.26 | 18:05.49 | 196751 | 278174 11 | 61:49.00 | 1:47.27 | 278175 | 286226 12 | 63:36.27 | 10:34.32 | 286227 | 333808 13 | 74:10.59 | 2:11.17 | 333809 | 343650

Характеристики диапазона извлечения и сообщения об ошибках

Выбранный диапазон

Имя файла D:\EAC\Philip Glass - Koyaanisqatsi (complete original soundtrack version).wav

Пиковый уровень 96.6 % Качество диапазона 100.0 % CRC теста A043F8DC CRC копии A043F8DC Копирование... OK

Ошибок не произошло

AccurateRip: сводка

Трек 1 точное извлечение (доверие 1) [58A2B3E4]Трек 2 точное извлечение (доверие 1) [084FB2A8]Трек 3 точное извлечение (доверие 1) [BFC7E668]Трек 4 точное извлечение (доверие 1) [2146EA0E]Трек 5 точное извлечение (доверие 1) [5586BB8C]Трек 6 точное извлечение (доверие 1) [54867496]Трек 7 точное извлечение (доверие 1) [28DF0E76]Трек 8 точное извлечение (доверие 1) [5A28E874]Трек 9 точное извлечение (доверие 1) [7045EB18]Трек 10 точное извлечение (доверие 1) [14B54283]Трек 11 точное извлечение (доверие 1) [B071330B]Трек 12 точное извлечение (доверие 1) [79AE236F]Трек 13 точное извлечение (доверие 1) [2B9DD97C]

Все треки извлечены точно

Конец отчёта

Доп. информация: Первая полная запись музыки Филипа Гласса к фильму Годфри Реджио.


Трекер:  [ 07-Июл-2011 22:54 ]

  

Скачать .torrent

Размер .torrent файла 15 KB


Размер: 370 MB
Хэш (hash) релиза: 4c078fdd2b3235244094dfc821cb05480f3918ed

Торренты, похожие на Koyaanisqatsi | Коянискаци скачать торрент

Форум Название Автор Размер S L Добавлен
Саундтреки к фильмам и мультфильмам (mp3) ·· (Score) Koyaanisqatsi / Коянискаци (Complete) (Philip Glass) - 2009, MP3 (tracks), 320 kbps Galfimbul 186146087178 MB 0 0 1292266038

21:47

13-Дек-10

Еще никто не оставлял запись к записи скачать торрент Koyaanisqatsi | Коянискаци . Будь первым!

!Обратная связь