Скачать через торрент музыку Titanic | Титаник | бесплатно без регистрации torrent

Статистика раздачи
Размер:  751 MB   |    Зарегистрирован:  7 лет 7 месяцев   |    .torrent скачан:  87 раз   |   
Раздают:  1  
   
загрузка...
 
Автор Сообщение

AqvaGen



James Horner - Titanic (Special Limited Edition: Titanic & Back To Titanic) (2 CD)


Жанр: Score, Symphonic, Celtic
Год выпуска диска: 1998
Производитель диска: Австралия
Аудио кодек: FLAC
Тип рипа: image+.cue
Битрейт аудио: lossless
Продолжительность: 2 часа 31 минута 22 секунды

Disc 1 : TITANIC (OST)
1. Never An Absolution (03:03)
2. Distant Memories (02:23)
3. Southampton (04:01)
4. Rose (02:52)
5. Leaving Port (03:26)
6. "Take Her To Sea, Mr. Murdoch" (04:31)
7. "Hard To Starboard" (06:52)
8. Unable To Stay, Unwilling To Leave (03:56)
9. The Sinking (05:05)
10. Death Of Titanic (08:26)
11. A Promise Kept (06:02)
12. A Life So Changed (02:13)
13. An Ocean Of Memories (07:57)
14. My Heart Will Go On (05:10)
Performed by Celine Dion
15. Hymn To The Sea (06:25)
Disc 2 : BACK TO TITANIC
1. Titanic Suite (19:05)
Performed by the London Symphony Orchestra and the Choristers of King's College, Cambridge
2. An Irish Party In Third Class (03:49)
performed by Gaelic Storm
3. Alexander's Ragtime Band (02:30)
performed by I Salonisti
4. The Portrait (04:43)
piano solo performed by James Horner
5. Jack Dawson's Luck (05:38)
6. A Building Panic (08:09)
7. Nearer My God To Thee (02:49)
performed by I Salonisti
8. Come Josephine, In My Flying Machine (03:32)
performed by Maire Brennan
9. Lament (04:36)
10. A Shore Never Reached (04:27)
Performed by the London Symphony Orchestra
11. My Heart Will Go On (04:43)
with dialogue from the film, performed by Celine Dion
12. Nearer My God To Thee (02:22)
performed by Eileen Ivers
13. Epilogue - The Deep And Timeless Sea (12:37)
Performed by the London Symphony Orchestra and the Choristers of King's College, Cambridge

 
Exact Audio Copy V0.99 prebeta 4 from 23. January 2008

Archivo Log de extracciones desde 27. Marzo 2008, 21:35

James Horner / TITANIC

Usar unidad : HL-DT-STDVD-RAM GSA-H20L Adapter: 1 ID: 1

Modo de Lectura : SeguroUtilizar Corriente Exacta : SнDescartar Audio cachй : SнUtilizar los punteros C2 : No

Correcciуn de Desplazamiento de Lectura : 102Sobreleer tanto en Lead-In como en Lead-Out : NoRellenar las muestras faltantes con silencios : SнEliminar silencios inicial y final : NoSe han usado muestras nulas en los cбlculos CRC : SнInterfaz usada : Interfaz ASPI externo instalado

Formato de Salida utilizado : Rutinas WAV InternasFormato de Muestreo : 44.100 Hz; 16 Bit; Estйreo

TOC del CD extraido

Pista | Inicio | Duraciуn | Sector inicial | Sector final ------------------------------------------------------------- 1 | 0:00.00 | 3:03.05 | 0 | 13729 2 | 3:03.05 | 2:23.72 | 13730 | 24526 3 | 5:27.02 | 4:01.68 | 24527 | 42669 4 | 9:28.70 | 2:52.25 | 42670 | 55594 5 | 12:21.20 | 3:26.27 | 55595 | 71071 6 | 15:47.47 | 4:31.18 | 71072 | 91414 7 | 20:18.65 | 6:52.37 | 91415 | 122351 8 | 27:11.27 | 3:56.35 | 122352 | 140086 9 | 31:07.62 | 5:05.28 | 140087 | 162989 10 | 36:13.15 | 8:26.22 | 162990 | 200961 11 | 44:39.37 | 6:02.40 | 200962 | 228151 12 | 50:42.02 | 2:13.05 | 228152 | 238131 13 | 52:55.07 | 7:57.73 | 238132 | 273979 14 | 60:53.05 | 5:10.55 | 273980 | 297284 15 | 66:03.60 | 6:25.55 | 297285 | 326214

Gama de estados y errores

Seleccionar gama

Nombre de Archivo E:\TITANIC, SPECIAL EDITION_James Horner\TITANIC\James Horner - TITANIC.wav

Nivel Pico 98.4 % Gama de Calidad 100.0 % Copiar CRC D2086D7A Copia OK

Sin Errores

Final del Informe
 
Exact Audio Copy V0.99 prebeta 4 from 23. January 2008

Archivo Log de extracciones desde 27. Marzo 2008, 22:10

James Horner / BACK TO TITANIC

Usar unidad : HL-DT-STDVD-RAM GSA-H20L Adapter: 1 ID: 1

Modo de Lectura : SeguroUtilizar Corriente Exacta : SнDescartar Audio cachй : SнUtilizar los punteros C2 : No

Correcciуn de Desplazamiento de Lectura : 102Sobreleer tanto en Lead-In como en Lead-Out : NoRellenar las muestras faltantes con silencios : SнEliminar silencios inicial y final : NoSe han usado muestras nulas en los cбlculos CRC : SнInterfaz usada : Interfaz ASPI externo instalado

Formato de Salida utilizado : Rutinas WAV InternasFormato de Muestreo : 44.100 Hz; 16 Bit; Estйreo

TOC del CD extraido

Pista | Inicio | Duraciуn | Sector inicial | Sector final ------------------------------------------------------------- 1 | 0:00.00 | 19:05.17 | 0 | 85891 2 | 19:05.17 | 3:49.10 | 85892 | 103076 3 | 22:54.27 | 2:30.58 | 103077 | 114384 4 | 25:25.10 | 4:43.35 | 114385 | 135644 5 | 30:08.45 | 5:38.50 | 135645 | 161044 6 | 35:47.20 | 8:09.00 | 161045 | 197719 7 | 43:56.20 | 2:49.57 | 197720 | 210451 8 | 46:46.02 | 3:32.48 | 210452 | 226399 9 | 50:18.50 | 4:36.27 | 226400 | 247126 10 | 54:55.02 | 4:27.28 | 247127 | 267179 11 | 59:22.30 | 4:43.05 | 267180 | 288409 12 | 64:05.35 | 2:22.25 | 288410 | 299084 13 | 66:27.60 | 12:37.47 | 299085 | 355906

Gama de estados y errores

Seleccionar gama

Nombre de Archivo E:\TITANIC, SPECIAL EDITION_James Horner\BACK TO TITANIC\James Horner - BACK TO TITANIC.wav

Nivel Pico 97.7 % Gama de Calidad 100.0 % Copiar CRC 8CC4F050 Copia OK

Sin Errores

Final del Informe


Трекер:  [ 21-Дек-2010 15:58 ]

  

Скачать .torrent

Размер .torrent файла 17 KB


Размер: 751 MB
Хэш (hash) релиза: 8902b5440f1ba756a03cbf7d1768d73f6412d9fc

bot

Топик был перенесен в форум Саундтреки к фильмам и мультфильмам (lossless)

Перенес AqvaGen

Хотите добавить комментарий к записи скачать торрент Titanic | Титаник |

!Обратная связь