Скачать через торрент музыку Spawn Спаун - 1997, FLAC бесплатно без регистрации torrent

Статистика раздачи
Размер:  451 MB   |    Зарегистрирован:  6 лет 9 месяцев   |    .torrent скачан:  70 раз   |   
Раздают:  1  
   
загрузка...
 
Автор Сообщение

Galfimbul

avatar Galfimbul


Spawn / Спаун

Жанр: Soundtrack, Rock
Год выпуска диска: 1997
Производитель диска: UK (with bonus track)
Аудио кодек: FLAC
Тип рипа: tracks+.cue
Битрейт аудио: lossless
Продолжительность: 01:07:27
Источник: what.cd (by FooBag)
Трэклист:
01. Crystal Method, The vs. Filter - (Can't You) Trip Like I Do [4:28]
02. Marilyn Manson vs. Sneaker Pimps - Long Hard Road Out Of Hell [4:21]
03. Kirk Hammett vs. Orbital - Satan [3:45]
04. Dust Brothers, The vs. Korn - Kick The P.A. [3:21]
05. Butthole Surfers vs. Moby - Tiny Rubberband [4:12]
06. DJ Spooky vs. Metallica - For Whom The Bell Tolls (The Irony Of It All) [4:39]
07. Stabbing Westward vs. Wink - Torn Apart [4:53]
08. 808 State vs. Mansun - Skin Up Pin Up [5:27]
09. Tom Morello vs. Prodigy, The - One Man Army [4:14]
10. Silverchair vs. Vitro - Spawn [4:28]
11. Goldie vs. Henry Rollins - T-4 Strain [5:19]
12. DJ Greyboy vs. Incubus - Familiar [3:22]
13. Atari Teenage Riot vs. Slayer - No Remorse (I Wanna Die) [4:16]
14. Roni Size vs. Soul Coughing - A Plane Scraped It's Belly On A Sooty Yellow Moon [5:26]
15. Apollo Four Forty vs. Morphine - This Is Not A Dream (UK) [5:15]
 
Exact Audio Copy V0.99 prebeta 5 from 4. May 2009

EAC extraction logfile from 27. January 2010, 16:18

Various / Spawn OST

Used drive : HP DVD Writer 840d Adapter: 0 ID: 2

Read mode : SecureUtilize accurate stream : YesDefeat audio cache : YesMake use of C2 pointers : Yes

Read offset correction : 6Overread into Lead-In and Lead-Out : NoFill up missing offset samples with silence : YesDelete leading and trailing silent blocks : NoNull samples used in CRC calculations : YesUsed interface : Installed external ASPI interfaceGap handling : Appended to previous track

Used output format : User Defined EncoderSelected bitrate : 768 kBit/sQuality : HighAdd ID3 tag : NoCommand line compressor : C:\Program Files\Exact Audio Copy\FLAC\FLAC.EXEAdditional command line options : -8 -A tukey(0.25) -A gauss(0.1875) -b 4096 -V -T "artist=%a" -T "title=%t" -T "album=%g" -T "date=%y" -T "tracknumber=%n" -T "genre=%m" %s

TOC of the extracted CD

Track | Start | Length | Start sector | End sector --------------------------------------------------------- 1 | 0:00.00 | 4:28.17 | 0 | 20116 2 | 4:28.17 | 4:21.43 | 20117 | 39734 3 | 8:49.60 | 3:45.62 | 39735 | 56671 4 | 12:35.47 | 3:21.68 | 56672 | 71814 5 | 15:57.40 | 4:12.32 | 71815 | 90746 6 | 20:09.72 | 4:39.15 | 90747 | 111686 7 | 24:49.12 | 4:53.10 | 111687 | 133671 8 | 29:42.22 | 5:27.23 | 133672 | 158219 9 | 35:09.45 | 4:14.25 | 158220 | 177294 10 | 39:23.70 | 4:28.47 | 177295 | 197441 11 | 43:52.42 | 5:19.13 | 197442 | 221379 12 | 49:11.55 | 3:22.10 | 221380 | 236539 13 | 52:33.65 | 4:16.12 | 236540 | 255751 14 | 56:50.02 | 5:26.10 | 255752 | 280211 15 | 62:16.12 | 5:16.00 | 280212 | 303911

Track 1

Filename I:\FLAC\Spawn OST 2\01 - Filter & The Crystal Method - (Can't You) Trip Like I Do.wav

Pre-gap length 0:00:02.00

Peak level 99.4 % Track quality 100.0 % Test CRC 2946A7FE Copy CRC 2946A7FE Accurately ripped (confidence 9) [44CA331C] Copy OK

Track 2

Filename I:\FLAC\Spawn OST 2\02 - Marilyn Manson & The Sneaker Pimps - Long Hard Road Out of Hell.wav

Peak level 99.6 % Track quality 100.0 % Test CRC 6DC5C815 Copy CRC 6DC5C815 Accurately ripped (confidence 9) [8D598D2A] Copy OK

Track 3

Filename I:\FLAC\Spawn OST 2\03 - Orbital & Kirk Hammett - Satan.wav

Pre-gap length 0:00:00.04

Peak level 98.0 % Track quality 100.0 % Test CRC CACC4E4B Copy CRC CACC4E4B Accurately ripped (confidence 9) [5DB14E82] Copy OK

Track 4

Filename I:\FLAC\Spawn OST 2\04 - KoRn & The Dust Brothers - Kick The P.A..wav

Peak level 96.5 % Track quality 100.0 % Test CRC 560DFCE5 Copy CRC 560DFCE5 Accurately ripped (confidence 9) [0A15A331] Copy OK

Track 5

Filename I:\FLAC\Spawn OST 2\05 - Butthole Surfers & Moby - Tiny Rubberband.wav

Peak level 93.7 % Track quality 99.9 % Test CRC 52CBD1A6 Copy CRC 52CBD1A6 Accurately ripped (confidence 9) [64B376CB] Copy OK

Track 6

Filename I:\FLAC\Spawn OST 2\06 - Metallica & DJ Spooky - For Whom the Bell Tolls (The Irony Of It All).wav

Pre-gap length 0:00:00.02

Peak level 98.5 % Track quality 99.9 % Test CRC 5B8442AF Copy CRC 5B8442AF Accurately ripped (confidence 9) [5EC477C6] Copy OK

Track 7

Filename I:\FLAC\Spawn OST 2\07 - Stabbing Westward & Wink - Torn Apart.wav

Peak level 95.6 % Track quality 100.0 % Test CRC E96C0445 Copy CRC E96C0445 Accurately ripped (confidence 9) [093533FA] Copy OK

Track 8

Filename I:\FLAC\Spawn OST 2\08 - Mansun & 808 State - Skin Up Pin Up.wav

Peak level 93.8 % Track quality 100.0 % Test CRC 7AC7F351 Copy CRC 7AC7F351 Accurately ripped (confidence 9) [F722A781] Copy OK

Track 9

Filename I:\FLAC\Spawn OST 2\09 - Prodigy & Tom Morello - One Man Army.wav

Peak level 96.6 % Track quality 100.0 % Test CRC 979EE4C8 Copy CRC 979EE4C8 Accurately ripped (confidence 9) [AA47BB1A] Copy OK

Track 10

Filename I:\FLAC\Spawn OST 2\10 - Silverchair & Vitro - Spawn.wav

Pre-gap length 0:00:00.04

Peak level 96.6 % Track quality 100.0 % Test CRC 29FC40BA Copy CRC 29FC40BA Accurately ripped (confidence 9) [AA14A0FF] Copy OK

Track 11

Filename I:\FLAC\Spawn OST 2\11 - Henry Rollins & Goldie - T-4 Strain.wav

Pre-gap length 0:00:00.02

Peak level 94.2 % Track quality 100.0 % Test CRC 1BB456D0 Copy CRC 1BB456D0 Accurately ripped (confidence 9) [DC75F465] Copy OK

Track 12

Filename I:\FLAC\Spawn OST 2\12 - Incubus & DJ Greyboy - Familiar.wav

Peak level 96.0 % Track quality 100.0 % Test CRC 86599CCD Copy CRC 86599CCD Accurately ripped (confidence 9) [D406851C] Copy OK

Track 13

Filename I:\FLAC\Spawn OST 2\13 - Slayer & Atari Teenage Riot - No Remorse (I Wanna Die).wav

Peak level 96.1 % Track quality 100.0 % Test CRC 14352CF5 Copy CRC 14352CF5 Accurately ripped (confidence 9) [EA2F5918] Copy OK

Track 14

Filename I:\FLAC\Spawn OST 2\14 - Soul Coughing & Roni Size - A Plane Scraped Its Belly on a Sooty Yellow Moon.wav

Pre-gap length 0:00:01.13

Peak level 92.1 % Track quality 100.0 % Test CRC 655AE5CE Copy CRC 655AE5CE Accurately ripped (confidence 9) [52E0D9DD] Copy OK

Track 15

Filename I:\FLAC\Spawn OST 2\15 - Apollo Four Fourty & Morphine - This Is Not a Dream.wav

Peak level 99.3 % Track quality 100.0 % Test CRC 3A88AB10 Copy CRC 3A88AB10 Accurately ripped (confidence 9) [7286375F] Copy OK

All tracks accurately ripped

No errors occurred

End of status report

------------------------------------------------------------

Exact Audio Copy V0.99 prebeta 5 from 4. May 2009

EAC extraction logfile from 27. January 2010, 16:42

Various / Spawn OST

Used drive : HP DVD Writer 840d Adapter: 0 ID: 2

Read mode : SecureUtilize accurate stream : YesDefeat audio cache : YesMake use of C2 pointers : No

Read offset correction : 6Overread into Lead-In and Lead-Out : NoFill up missing offset samples with silence : YesDelete leading and trailing silent blocks : NoNull samples used in CRC calculations : YesUsed interface : Installed external ASPI interfaceGap handling : Appended to previous track

Used output format : User Defined EncoderSelected bitrate : 768 kBit/sQuality : HighAdd ID3 tag : NoCommand line compressor : C:\Program Files\Exact Audio Copy\FLAC\FLAC.EXEAdditional command line options : -8 -A tukey(0.25) -A gauss(0.1875) -b 4096 -V -T "artist=%a" -T "title=%t" -T "album=%g" -T "date=%y" -T "tracknumber=%n" -T "genre=%m" %s

TOC of the extracted CD

Track | Start | Length | Start sector | End sector --------------------------------------------------------- 1 | 0:00.00 | 4:28.17 | 0 | 20116 2 | 4:28.17 | 4:21.43 | 20117 | 39734 3 | 8:49.60 | 3:45.62 | 39735 | 56671 4 | 12:35.47 | 3:21.68 | 56672 | 71814 5 | 15:57.40 | 4:12.32 | 71815 | 90746 6 | 20:09.72 | 4:39.15 | 90747 | 111686 7 | 24:49.12 | 4:53.10 | 111687 | 133671 8 | 29:42.22 | 5:27.23 | 133672 | 158219 9 | 35:09.45 | 4:14.25 | 158220 | 177294 10 | 39:23.70 | 4:28.47 | 177295 | 197441 11 | 43:52.42 | 5:19.13 | 197442 | 221379 12 | 49:11.55 | 3:22.10 | 221380 | 236539 13 | 52:33.65 | 4:16.12 | 236540 | 255751 14 | 56:50.02 | 5:26.10 | 255752 | 280211 15 | 62:16.12 | 5:16.00 | 280212 | 303911

Track 1

Filename I:\FLAC\Spawn OST 2\01 - Filter & The Crystal Method - (Can't You) Trip Like I Do.wav

Pre-gap length 0:00:02.00

Peak level 99.4 % Track quality 100.0 % Test CRC 2946A7FE Copy CRC 2946A7FE Accurately ripped (confidence 9) [44CA331C] Copy OK

All tracks accurately ripped

No errors occurred

End of status report

------------------------------------------------------------

Exact Audio Copy V0.99 prebeta 5 from 4. May 2009

EAC extraction logfile from 29. January 2010, 18:42

Various / Spawn OST

Used drive : HP DVD Writer 840d Adapter: 0 ID: 2

Read mode : SecureUtilize accurate stream : YesDefeat audio cache : YesMake use of C2 pointers : No

Read offset correction : 6Overread into Lead-In and Lead-Out : NoFill up missing offset samples with silence : YesDelete leading and trailing silent blocks : NoNull samples used in CRC calculations : YesUsed interface : Installed external ASPI interfaceGap handling : Appended to previous track

Used output format : User Defined EncoderSelected bitrate : 768 kBit/sQuality : HighAdd ID3 tag : NoCommand line compressor : C:\Program Files\Exact Audio Copy\FLAC\FLAC.EXEAdditional command line options : -8 -A tukey(0.25) -A gauss(0.1875) -b 4096 -V -T "artist=%a" -T "title=%t" -T "album=%g" -T "date=%y" -T "tracknumber=%n" -T "genre=%m" %s

TOC of the extracted CD

Track | Start | Length | Start sector | End sector --------------------------------------------------------- 1 | 0:00.00 | 4:28.17 | 0 | 20116 2 | 4:28.17 | 4:21.43 | 20117 | 39734 3 | 8:49.60 | 3:45.62 | 39735 | 56671 4 | 12:35.47 | 3:21.68 | 56672 | 71814 5 | 15:57.40 | 4:12.32 | 71815 | 90746 6 | 20:09.72 | 4:39.15 | 90747 | 111686 7 | 24:49.12 | 4:53.10 | 111687 | 133671 8 | 29:42.22 | 5:27.23 | 133672 | 158219 9 | 35:09.45 | 4:14.25 | 158220 | 177294 10 | 39:23.70 | 4:28.47 | 177295 | 197441 11 | 43:52.42 | 5:19.13 | 197442 | 221379 12 | 49:11.55 | 3:22.10 | 221380 | 236539 13 | 52:33.65 | 4:16.12 | 236540 | 255751 14 | 56:50.02 | 5:26.10 | 255752 | 280211 15 | 62:16.12 | 5:16.00 | 280212 | 303911

Track 1

Filename I:\FLAC\Spawn OST 2\01 - Filter & The Crystal Method - (Can't You) Trip Like I Do.wav

Pre-gap length 0:00:02.00

Peak level 99.4 % Track quality 100.0 % Test CRC 2946A7FE Copy CRC 2946A7FE Accurately ripped (confidence 9) [44CA331C] Copy OK

Track 2

Filename I:\FLAC\Spawn OST 2\02 - Marilyn Manson & The Sneaker Pimps - Long Hard Road Out of Hell.wav

Peak level 99.6 % Track quality 100.0 % Test CRC 6DC5C815 Copy CRC 6DC5C815 Accurately ripped (confidence 9) [8D598D2A] Copy OK

Track 3

Filename I:\FLAC\Spawn OST 2\03 - Orbital & Kirk Hammett - Satan.wav

Pre-gap length 0:00:00.04

Peak level 98.0 % Track quality 100.0 % Test CRC CACC4E4B Copy CRC CACC4E4B Accurately ripped (confidence 9) [5DB14E82] Copy OK

Track 4

Filename I:\FLAC\Spawn OST 2\04 - KoRn & The Dust Brothers - Kick The P.A..wav

Peak level 96.5 % Track quality 99.9 % Test CRC 560DFCE5 Copy CRC 560DFCE5 Accurately ripped (confidence 9) [0A15A331] Copy OK

Track 5

Filename I:\FLAC\Spawn OST 2\05 - Butthole Surfers & Moby - Tiny Rubberband.wav

Peak level 93.7 % Track quality 100.0 % Test CRC 52CBD1A6 Copy CRC 52CBD1A6 Accurately ripped (confidence 9) [64B376CB] Copy OK

Track 6

Filename I:\FLAC\Spawn OST 2\06 - Metallica & DJ Spooky - For Whom the Bell Tolls (The Irony Of It All).wav

Pre-gap length 0:00:00.02

Peak level 98.5 % Track quality 100.0 % Test CRC 5B8442AF Copy CRC 5B8442AF Accurately ripped (confidence 9) [5EC477C6] Copy OK

Track 7

Filename I:\FLAC\Spawn OST 2\07 - Stabbing Westward & Wink - Torn Apart.wav

Peak level 95.6 % Track quality 100.0 % Test CRC E96C0445 Copy CRC E96C0445 Accurately ripped (confidence 9) [093533FA] Copy OK

Track 8

Filename I:\FLAC\Spawn OST 2\08 - Mansun & 808 State - Skin Up Pin Up.wav

Peak level 93.8 % Track quality 100.0 % Test CRC 7AC7F351 Copy CRC 7AC7F351 Accurately ripped (confidence 9) [F722A781] Copy OK

Track 9

Filename I:\FLAC\Spawn OST 2\09 - Prodigy & Tom Morello - One Man Army.wav

Peak level 96.6 % Track quality 99.9 % Test CRC 979EE4C8 Copy CRC 979EE4C8 Accurately ripped (confidence 9) [AA47BB1A] Copy OK

Track 10

Filename I:\FLAC\Spawn OST 2\10 - Silverchair & Vitro - Spawn.wav

Pre-gap length 0:00:00.04

Peak level 96.6 % Track quality 99.9 % Test CRC 29FC40BA Copy CRC 29FC40BA Accurately ripped (confidence 9) [AA14A0FF] Copy OK

Track 11

Filename I:\FLAC\Spawn OST 2\11 - Henry Rollins & Goldie - T-4 Strain.wav

Pre-gap length 0:00:00.02

Peak level 94.2 % Track quality 100.0 % Test CRC 1BB456D0 Copy CRC 1BB456D0 Accurately ripped (confidence 9) [DC75F465] Copy OK

Track 12

Filename I:\FLAC\Spawn OST 2\12 - Incubus & DJ Greyboy - Familiar.wav

Peak level 96.0 % Track quality 100.0 % Test CRC 86599CCD Copy CRC 86599CCD Accurately ripped (confidence 9) [D406851C] Copy OK

Track 13

Filename I:\FLAC\Spawn OST 2\13 - Slayer & Atari Teenage Riot - No Remorse (I Wanna Die).wav

Peak level 96.1 % Track quality 100.0 % Test CRC 14352CF5 Copy CRC 14352CF5 Accurately ripped (confidence 9) [EA2F5918] Copy OK

Track 14

Filename I:\FLAC\Spawn OST 2\14 - Soul Coughing & Roni Size - A Plane Scraped Its Belly on a Sooty Yellow Moon.wav

Pre-gap length 0:00:01.13

Peak level 92.1 % Track quality 100.0 % Test CRC 655AE5CE Copy CRC 655AE5CE Accurately ripped (confidence 9) [52E0D9DD] Copy OK

Track 15

Filename I:\FLAC\Spawn OST 2\15 - Apollo Four Fourty & Morphine - This Is Not a Dream.wav

Peak level 99.3 % Track quality 100.0 % Test CRC 3A88AB10 Copy CRC 3A88AB10 Accurately ripped (confidence 9) [7286375F] Copy OK

All tracks accurately ripped

No errors occurred

End of status report
 
REM GENRE SoundtrackREM DATE 1997REM DISCID CA0FD40FREM COMMENT "ExactAudioCopy v0.99pb5"PERFORMER "Various"TITLE "Spawn OST"FILE "01 - Filter & The Crystal Method - (Can't You) Trip Like I Do.wav" WAVE TRACK 01 AUDIO TITLE "(Can't You) Trip Like I Do" PERFORMER "Filter & The Crystal Method" INDEX 01 00:00:00FILE "02 - Marilyn Manson & The Sneaker Pimps - Long Hard Road Out of Hell.wav" WAVE TRACK 02 AUDIO TITLE "Long Hard Road Out of Hell" PERFORMER "Marilyn Manson & The Sneaker Pimps" INDEX 01 00:00:00 TRACK 03 AUDIO TITLE "Satan" PERFORMER "Orbital & Kirk Hammett" INDEX 00 04:21:40FILE "03 - Orbital & Kirk Hammett - Satan.wav" WAVE INDEX 01 00:00:00FILE "04 - KoRn & The Dust Brothers - Kick The P.A..wav" WAVE TRACK 04 AUDIO TITLE "Kick The P.A." PERFORMER "KoRn & The Dust Brothers" INDEX 01 00:00:00FILE "05 - Butthole Surfers & Moby - Tiny Rubberband.wav" WAVE TRACK 05 AUDIO TITLE "Tiny Rubberband" PERFORMER "Butthole Surfers & Moby" INDEX 01 00:00:00 TRACK 06 AUDIO TITLE "For Whom the Bell Tolls (The Irony Of It All)" PERFORMER "Metallica & DJ Spooky" INDEX 00 04:12:30FILE "06 - Metallica & DJ Spooky - For Whom the Bell Tolls (The Irony Of It All).wav" WAVE INDEX 01 00:00:00FILE "07 - Stabbing Westward & Wink - Torn Apart.wav" WAVE TRACK 07 AUDIO TITLE "Torn Apart" PERFORMER "Stabbing Westward & Wink" INDEX 01 00:00:00FILE "08 - Mansun & 808 State - Skin Up Pin Up.wav" WAVE TRACK 08 AUDIO TITLE "Skin Up Pin Up" PERFORMER "Mansun & 808 State" INDEX 01 00:00:00FILE "09 - Prodigy & Tom Morello - One Man Army.wav" WAVE TRACK 09 AUDIO TITLE "One Man Army" PERFORMER "Prodigy & Tom Morello" INDEX 01 00:00:00 TRACK 10 AUDIO TITLE "Spawn" PERFORMER "Silverchair & Vitro" INDEX 00 04:14:22FILE "10 - Silverchair & Vitro - Spawn.wav" WAVE INDEX 01 00:00:00 TRACK 11 AUDIO TITLE "T-4 Strain" PERFORMER "Henry Rollins & Goldie" INDEX 00 04:28:45FILE "11 - Henry Rollins & Goldie - T-4 Strain.wav" WAVE INDEX 01 00:00:00FILE "12 - Incubus & DJ Greyboy - Familiar.wav" WAVE TRACK 12 AUDIO TITLE "Familiar" PERFORMER "Incubus & DJ Greyboy" INDEX 01 00:00:00FILE "13 - Slayer & Atari Teenage Riot - No Remorse (I Wanna Die).wav" WAVE TRACK 13 AUDIO TITLE "No Remorse (I Wanna Die)" PERFORMER "Slayer & Atari Teenage Riot" INDEX 01 00:00:00 TRACK 14 AUDIO TITLE "A Plane Scraped Its Belly on a Sooty Yellow Moon" PERFORMER "Soul Coughing & Roni Size" INDEX 00 04:15:02FILE "14 - Soul Coughing & Roni Size - A Plane Scraped Its Belly on a Sooty Yellow Moon.wav" WAVE INDEX 01 00:00:00FILE "15 - Apollo Four Fourty & Morphine - This Is Not a Dream.wav" WAVE TRACK 15 AUDIO TITLE "This Is Not a Dream" PERFORMER "Apollo Four Fourty & Morphine" INDEX 01 00:00:00


Трекер:  [ 07-Июл-2011 22:54 ]

  

Скачать .torrent

Размер .torrent файла 37 KB


Размер: 451 MB
Хэш (hash) релиза: e544be18ea2fc035a89f339a9e84da852f26e904

Еще никто не оставлял запись к записи скачать торрент Spawn Спаун - 1997, FLAC . Будь первым!

!Обратная связь