Скачать через торрент музыку Joe Hisaishi - Piano Stories Best 88-08 - 2008, FLAC бесплатно без регистрации torrent

Статистика раздачи
Размер:  260 MB   |    Зарегистрирован:  7 лет 4 месяца   |    .torrent скачан:  56 раз   |   
Раздают:  1  
   
загрузка...
 
Автор Сообщение

AqvaGen


Joe Hisaishi - Piano Stories Best '88-'08

Жанр: Instrumental
Год выпуска диска: 2008
Производитель диска: Taiwan
Аудио кодек: FLAC
Тип рипа: image+.cue
Продолжительность: 59:29
Трэклист:

1. The Wind of Life (4:43)
2. Ikaros -2008 Remix (4:24)
3. HANA-BI (3:37)
4. Fantasia (6:57)
5. Oriental Wind -2008 Remix (5:46)
6. Innocent (2:32)
7. Angel Springs (3:15)
8. il porco rosso (4:52)
9. The Wind Forest (4:55)
10. Cinema Nostalgia (6:11)
11. Kids Return (4:41)
12. A Summer's Day (3:08)
13. A Merry-go-round of Life -Piano Solo Ver (4:28)
Exact Audio Copy V0.99 prebeta 4 from 23. January 2008

Отчёт EAC об извлечении, выполненном 26. ноября 2008, 23:02

Joe Hisaishi / PianoStoriesBest '88-'08

Дисковод: SlimtypeDVDRW SSM-8515S Adapter: 1 ID: 0

Режим чтения : Достоверность
Использование точного потока : Да
Отключение кэша аудио : Да
Использование указателей C2 : Нет

Коррекция смещения при чтении : 594
Способность читать области Lead-in и Lead-out : Нет
Заполнение пропущенных сэмплов тишиной : Да
Удаление блоков с тишиной в начале и конце : Нет
При вычислениях CRC использовались нулевые сэмплы : Да
Интерфейс : Установленный внешний ASPI-интерфейс

Выходной формат : Пользовательский кодировщик
Выбранный битрейт : 1024 kBit/s
Качество : Высокий
Добавление ID3-тэга : Нет
Утилита сжатия : C:\Program Files\FLAC\flac.exe
Дополнительные параметры : -8 -V -T "ARTIST=%a" -T "TITLE=%t" -T "ALBUM=%g" -T "DATE=%y" -T "TRACKNUMBER=%n" -T "GENRE=%m" -T "COMMENT=EAC FLAC -8" %s

TOC извлечённого CD

Трек | Старт | Длительность | Начальный сектор | Конечный сектор
---------------------------------------------------------------------
1 | 0:00.00 | 4:43.17 | 0 | 21241
2 | 4:43.17 | 4:24.03 | 21242 | 41044
3 | 9:07.20 | 3:37.03 | 41045 | 57322
4 | 12:44.23 | 6:57.37 | 57323 | 88634
5 | 19:41.60 | 5:46.13 | 88635 | 114597
6 | 25:27.73 | 2:31.72 | 114598 | 125994
7 | 27:59.70 | 3:14.63 | 125995 | 140607
8 | 31:14.58 | 4:52.10 | 140608 | 162517
9 | 36:06.68 | 4:55.12 | 162518 | 184654
10 | 41:02.05 | 6:11.10 | 184655 | 212489
11 | 47:13.15 | 4:40.50 | 212490 | 233539
12 | 51:53.65 | 3:07.63 | 233540 | 247627
13 | 55:01.53 | 4:27.43 | 247628 | 267695

Характеристики диапазона извлечения и сообщения об ошибках

Выбранный диапазон

Имя файла E:\Downloads\Joe Hisaishi - Piano Stories Best '88-'08\Joe Hisaishi - PianoStoriesBest '88-'08.wav

Пиковый уровень 97.7 %
Качество диапазона 100.0 %
CRC теста 4C637B94
CRC копии 4C637B94
Копирование... OK

Ошибок не произошло

Конец отчёта


Трекер:  [ 21-Дек-2010 15:24 ]

  

Скачать .torrent

Размер .torrent файла 11 KB


Размер: 260 MB
Хэш (hash) релиза: 5b1bc147bb8f74ffd0ddff72498d918eb535bcf0

bot

Топик был перенесен в форум Саундтреки к фильмам и мультфильмам (lossless)

Перенес AqvaGen

Хотите добавить комментарий к записи скачать торрент Joe Hisaishi - Piano Stories Best 88-08 - 2008, FLAC

!Обратная связь