Скачать через торрент музыку Бешеные псы Reservoir Dogs - 1992, FLAC бесплатно без регистрации torrent

Статистика раздачи
Размер:  182 MB   |    Зарегистрирован:  6 лет 9 месяцев   |    .torrent скачан:  57 раз   |   
Раздают:  1  
   
загрузка...
 
Автор Сообщение

Galfimbul

avatar Galfimbul


Reservoir Dogs

Страна: США
Жанр: Soundtrack
Год выпуска: 1992
Формат: FLAC (image + .cue)
Продолжительность: 30 мин. 51 сек.
Трэклист:
01. "And Now Little Green Bag..." (Dialogue extract performed by Steven Wright)
02. "Little Green Bag" by The George Baker Selection
03. "Rock Flock of Five" (Dialogue extract performed by Steven Wright)
04. "Hooked on a Feeling" by Blue Swede
05. "Bohemiath" (Dialogue extract performed by Steven Wright)
06. "I Gotcha" by Joe Tex
07. "Magic Carpet Ride" by Bedlam
08. "Madonna Speech"(Dialogue extract performed by Quentin Tarantino, Edward Bunker and Harvey Keitel)
09. "Fool for Love" by Sandy Rogers
10. "Super Sounds" (Dialogue extract performed by Steven Wright)
11. "Stuck in the Middle With You" by Stealers Wheel
12. "Harvest Moon" by Bedlam
13. "Let's Get A Taco" (Dialogue extract performed by Harvey Keitel and Tim Roth)
14. "Keep on Truckin'" (Dialogue extract performed by Steven Wright)
15. "Coconut" by Harry Nilsson
16. "Home of Rock" (Dialogue extract performed by Steven Wright)
Доп. информация:
Exact Audio Copy V0.99 prebeta 3 from 28. July 2007

Отчёт EAC об извлечении, выполненном 16. декабря 2007, 14:42

Various / Reservoir Dogs

Дисковод: PIONEER DVD-RW DVR-112D Adapter: 0 ID: 1

Режим чтения : Достоверность
Использование точного потока : Да
Отключение кэша аудио : Да
Использование указателей C2 : Нет

Коррекция смещения при чтении : 48
Способность читать области Lead-in и Lead-out : Нет
Заполнение пропущенных сэмплов тишиной : Да
Удаление блоков с тишиной в начале и конце : Нет
При вычислениях CRC использовались нулевые сэмплы : Да
Интерфейс : Встроенный Win32-интерфейс для Win NT/2000

Выходной формат : Внутренние WAV-операции
Формат сэмплов : 44.100 Гц; 16 бит; стерео

TOC извлечённого CD

Трек | Старт | Длительность | Начальный сектор | Конечный сектор
---------------------------------------------------------------------
1 | 0:00.00 | 0:15.32 | 0 | 1156
2 | 0:15.32 | 3:15.40 | 1157 | 15821
3 | 3:30.72 | 0:11.15 | 15822 | 16661
4 | 3:42.12 | 2:53.53 | 16662 | 29689
5 | 6:35.65 | 0:34.27 | 29690 | 32266
6 | 7:10.17 | 2:27.48 | 32267 | 43339
7 | 9:37.65 | 5:10.55 | 43340 | 66644
8 | 14:48.45 | 0:59.05 | 66645 | 71074
9 | 15:47.50 | 3:25.35 | 71075 | 86484
10 | 19:13.10 | 0:19.00 | 86485 | 87909
11 | 19:32.10 | 3:23.67 | 87910 | 103201
12 | 22:56.02 | 2:38.03 | 103202 | 115054
13 | 25:34.05 | 1:02.50 | 115055 | 119754
14 | 26:36.55 | 0:16.45 | 119755 | 120999
15 | 26:53.25 | 3:50.57 | 121000 | 138306
16 | 30:44.07 | 0:05.30 | 138307 | 138711

Характеристики диапазона извлечения и сообщения об ошибках

Выбранный диапазон

Имя файла E:\My_Sid\Soundtracks\Reservoir_Dogs\Various_Reservoir_Dogs.wav

Пиковый уровень 100.0 %
Качество диапазона 99.9 %
CRC копии E044A252
Копирование... OK

Ошибок не произошло

Конец отчёта
Various_Reservoir_Dogs.cue
Various_Reservoir_Dogs.flac


Трекер:  [ 07-Июл-2011 22:53 ]

  

Скачать .torrent

Размер .torrent файла 29 KB


Размер: 182 MB
Хэш (hash) релиза: 6ca9292e5d29538cfa444158b37267271b69b5c2

Еще никто не оставлял запись к записи скачать торрент Бешеные псы Reservoir Dogs - 1992, FLAC . Будь первым!

!Обратная связь