Скачать через торрент музыку Karen O And The Kids - Where The Wild Things Are Там, где живут чудовища - 2009, FLAC бесплатно без регистрации torrent

Статистика раздачи
Размер:  221 MB   |    Зарегистрирован:  6 лет 9 месяцев   |    .torrent скачан:  33 раза   |   
Раздают:  1  
   
загрузка...
 
Автор Сообщение

Galfimbul

avatar Galfimbul


Karen O And The Kids - Where The Wild Things Are

Жанр: Soundtrack/Indie Pop
Год выпуска диска: 2009
Производитель диска: USA
Аудио кодек: FLAC
Тип рипа: tracks+.cue
Битрейт аудио: lossless
Продолжительность: 40:08
Источник: What.cd
Трэклист:
01 - Igloo
02 - All Is Love
03 - Capsize
04 - Worried Shoes
05 - Rumpus
06 - Rumpus Reprise
07 - Hidaway
08 - Cliffs
09 - Animal
10 - Lost Fur
11 - Heads Up
12 - Building All Is Love
13 - Food Is Still Hot
14 - Sailing Home
 
Exact Audio Copy V0.99 prebeta 5 from 4. May 2009

EAC extraction logfile from 8. October 2009, 20:01

Karen O and the kids / Where the wild things are

Used drive : HL-DT-STDVDRAM GH15F Adapter: 3 ID: 3

Read mode : SecureUtilize accurate stream : YesDefeat audio cache : YesMake use of C2 pointers : No

Read offset correction : 667Overread into Lead-In and Lead-Out : NoFill up missing offset samples with silence : YesDelete leading and trailing silent blocks : NoNull samples used in CRC calculations : YesUsed interface : Native Win32 interface for Win NT & 2000Gap handling : Appended to previous track

Used output format : User Defined EncoderSelected bitrate : 320 kBit/sQuality : HighAdd ID3 tag : NoCommand line compressor : C:\Program Files\Exact Audio Copy\Flac\flac.exeAdditional command line options : -V -8 -T "artist=%a" -T "title=%t" -T "album=%g" -T "date=%y" -T "tracknumber=%n" -T "genre=%m" %s

TOC of the extracted CD

Track | Start | Length | Start sector | End sector --------------------------------------------------------- 1 | 0:00.00 | 1:49.21 | 0 | 8195 2 | 1:49.21 | 2:51.36 | 8196 | 21056 3 | 4:40.57 | 2:38.35 | 21057 | 32941 4 | 7:19.17 | 4:12.62 | 32942 | 51903 5 | 11:32.04 | 2:46.24 | 51904 | 64377 6 | 14:18.28 | 1:56.13 | 64378 | 73090 7 | 16:14.41 | 5:11.69 | 73091 | 96484 8 | 21:26.35 | 3:00.22 | 96485 | 110006 9 | 24:26.57 | 4:12.48 | 110007 | 128954 10 | 28:39.30 | 1:08.07 | 128955 | 134061 11 | 29:47.37 | 2:55.60 | 134062 | 147246 12 | 32:43.22 | 3:33.59 | 147247 | 163280 13 | 36:17.06 | 2:47.08 | 163281 | 175813 14 | 39:04.14 | 1:02.63 | 175814 | 180526

Track 1

Filename D:\EAC rips\Karen O and the kids - 2009 - Where the wild things are\01 - Igloo.wav

Pre-gap length 0:00:02.00

Peak level 77.7 % Track quality 100.0 % Test CRC F6F603E0 Copy CRC F6F603E0 Track not present in AccurateRip database Copy OK

Track 2

Filename D:\EAC rips\Karen O and the kids - 2009 - Where the wild things are\02 - All is love.wav

Pre-gap length 0:00:00.52

Peak level 98.8 % Track quality 100.0 % Test CRC 74C70A94 Copy CRC 74C70A94 Track not present in AccurateRip database Copy OK

Track 3

Filename D:\EAC rips\Karen O and the kids - 2009 - Where the wild things are\03 - Capsize.wav

Pre-gap length 0:00:01.61

Peak level 98.8 % Track quality 100.0 % Test CRC 471EF1C4 Copy CRC 471EF1C4 Track not present in AccurateRip database Copy OK

Track 4

Filename D:\EAC rips\Karen O and the kids - 2009 - Where the wild things are\04 - Worried shoes.wav

Pre-gap length 0:00:00.14

Peak level 98.8 % Track quality 100.0 % Test CRC E24A48D7 Copy CRC E24A48D7 Track not present in AccurateRip database Copy OK

Track 5

Filename D:\EAC rips\Karen O and the kids - 2009 - Where the wild things are\05 - Rumpus.wav

Pre-gap length 0:00:00.44

Peak level 98.8 % Track quality 100.0 % Test CRC 9956C5EF Copy CRC 9956C5EF Track not present in AccurateRip database Copy OK

Track 6

Filename D:\EAC rips\Karen O and the kids - 2009 - Where the wild things are\06 - Rumpus reprise.wav

Pre-gap length 0:00:02.40

Peak level 98.8 % Track quality 100.0 % Test CRC BDA63888 Copy CRC BDA63888 Track not present in AccurateRip database Copy OK

Track 7

Filename D:\EAC rips\Karen O and the kids - 2009 - Where the wild things are\07 - Hideaway.wav

Pre-gap length 0:00:02.70

Peak level 98.8 % Track quality 100.0 % Test CRC C34003FB Copy CRC C34003FB Track not present in AccurateRip database Copy OK

Track 8

Filename D:\EAC rips\Karen O and the kids - 2009 - Where the wild things are\08 - Cliffs.wav

Pre-gap length 0:00:01.00

Peak level 98.8 % Track quality 99.9 % Test CRC 08ACAA8A Copy CRC 08ACAA8A Track not present in AccurateRip database Copy OK

Track 9

Filename D:\EAC rips\Karen O and the kids - 2009 - Where the wild things are\09 - Animal.wav

Pre-gap length 0:00:01.01

Peak level 98.8 % Track quality 99.9 % Test CRC E3A589A6 Copy CRC E3A589A6 Track not present in AccurateRip database Copy OK

Track 10

Filename D:\EAC rips\Karen O and the kids - 2009 - Where the wild things are\10 - Lost fur.wav

Pre-gap length 0:00:02.13

Peak level 91.4 % Track quality 99.8 % Test CRC 80C12A38 Copy CRC 80C12A38 Track not present in AccurateRip database Copy OK

Track 11

Filename D:\EAC rips\Karen O and the kids - 2009 - Where the wild things are\11 - Heads up.wav

Pre-gap length 0:00:01.36

Peak level 98.8 % Track quality 100.0 % Test CRC B2D0B603 Copy CRC B2D0B603 Track not present in AccurateRip database Copy OK

Track 12

Filename D:\EAC rips\Karen O and the kids - 2009 - Where the wild things are\12 - Building all is love.wav

Peak level 98.8 % Track quality 100.0 % Test CRC F431811A Copy CRC F431811A Track not present in AccurateRip database Copy OK

Track 13

Filename D:\EAC rips\Karen O and the kids - 2009 - Where the wild things are\13 - Food is stll hot.wav

Pre-gap length 0:00:01.21

Peak level 98.8 % Track quality 100.0 % Test CRC 21453284 Copy CRC 21453284 Track not present in AccurateRip database Copy OK

Track 14

Filename D:\EAC rips\Karen O and the kids - 2009 - Where the wild things are\14 - Sailing home.wav

Pre-gap length 0:00:02.04

Peak level 98.8 % Track quality 100.0 % Test CRC 491DD04C Copy CRC 491DD04C Track not present in AccurateRip database Copy OK

None of the tracks are present in the AccurateRip database

No errors occurred

End of status report
 
REM GENRE SoundtrackREM DATE 2009REM DISCID D209670EREM COMMENT "ExactAudioCopy v0.99pb5"PERFORMER "Karen O and the kids"TITLE "Where the wild things are"FILE "Karen O and the kids - 2009 - Where the wild things are\01 - Igloo.wav" WAVE TRACK 01 AUDIO TITLE "Igloo" PERFORMER "Karen O and the kids" INDEX 01 00:00:00 TRACK 02 AUDIO TITLE "All is love" PERFORMER "Karen O and the kids" INDEX 00 01:48:57FILE "Karen O and the kids - 2009 - Where the wild things are\02 - All is love.wav" WAVE INDEX 01 00:00:00 TRACK 03 AUDIO TITLE "Capsize" PERFORMER "Karen O and the kids" INDEX 00 02:49:65FILE "Karen O and the kids - 2009 - Where the wild things are\03 - Capsize.wav" WAVE INDEX 01 00:00:00 TRACK 04 AUDIO TITLE "Worried shoes" PERFORMER "Karen O and the kids" INDEX 00 02:38:24FILE "Karen O and the kids - 2009 - Where the wild things are\04 - Worried shoes.wav" WAVE INDEX 01 00:00:00 TRACK 05 AUDIO TITLE "Rumpus" PERFORMER "Karen O and the kids" INDEX 00 04:12:29FILE "Karen O and the kids - 2009 - Where the wild things are\05 - Rumpus.wav" WAVE INDEX 01 00:00:00 TRACK 06 AUDIO TITLE "Rumpus reprise" PERFORMER "Karen O and the kids" INDEX 00 02:43:69FILE "Karen O and the kids - 2009 - Where the wild things are\06 - Rumpus reprise.wav" WAVE INDEX 01 00:00:00 TRACK 07 AUDIO TITLE "Hideaway" PERFORMER "Karen O and the kids" INDEX 00 01:53:35FILE "Karen O and the kids - 2009 - Where the wild things are\07 - Hideaway.wav" WAVE INDEX 01 00:00:00 TRACK 08 AUDIO TITLE "Cliffs" PERFORMER "Karen O and the kids" INDEX 00 05:10:69FILE "Karen O and the kids - 2009 - Where the wild things are\08 - Cliffs.wav" WAVE INDEX 01 00:00:00 TRACK 09 AUDIO TITLE "Animal" PERFORMER "Karen O and the kids" INDEX 00 02:59:21FILE "Karen O and the kids - 2009 - Where the wild things are\09 - Animal.wav" WAVE INDEX 01 00:00:00 TRACK 10 AUDIO TITLE "Lost fur" PERFORMER "Karen O and the kids" INDEX 00 04:10:38FILE "Karen O and the kids - 2009 - Where the wild things are\10 - Lost fur.wav" WAVE INDEX 01 00:00:00 TRACK 11 AUDIO TITLE "Heads up" PERFORMER "Karen O and the kids" INDEX 00 01:06:55FILE "Karen O and the kids - 2009 - Where the wild things are\11 - Heads up.wav" WAVE INDEX 01 00:00:00FILE "Karen O and the kids - 2009 - Where the wild things are\12 - Building all is love.wav" WAVE TRACK 12 AUDIO TITLE "Building all is love" PERFORMER "Karen O and the kids" INDEX 01 00:00:00 TRACK 13 AUDIO TITLE "Food is stll hot" PERFORMER "Karen O and the kids" INDEX 00 03:32:43FILE "Karen O and the kids - 2009 - Where the wild things are\13 - Food is stll hot.wav" WAVE INDEX 01 00:00:00 TRACK 14 AUDIO TITLE "Sailing home" PERFORMER "Karen O and the kids" INDEX 00 02:45:05FILE "Karen O and the kids - 2009 - Where the wild things are\14 - Sailing home.wav" WAVE INDEX 01 00:00:00
 
REM GENRE SoundtrackREM DATE 2009REM DISCID D209670EREM COMMENT "ExactAudioCopy v0.99pb5"PERFORMER "Karen O and the kids"TITLE "Where the wild things are"FILE "01 - Igloo.wav" WAVE TRACK 01 AUDIO TITLE "Igloo" PERFORMER "Karen O and the kids" INDEX 01 00:00:00 TRACK 02 AUDIO TITLE "All is love" PERFORMER "Karen O and the kids" INDEX 00 01:48:57FILE "02 - All is love.wav" WAVE INDEX 01 00:00:00 TRACK 03 AUDIO TITLE "Capsize" PERFORMER "Karen O and the kids" INDEX 00 02:49:65FILE "03 - Capsize.wav" WAVE INDEX 01 00:00:00 TRACK 04 AUDIO TITLE "Worried shoes" PERFORMER "Karen O and the kids" INDEX 00 02:38:24FILE "04 - Worried shoes.wav" WAVE INDEX 01 00:00:00 TRACK 05 AUDIO TITLE "Rumpus" PERFORMER "Karen O and the kids" INDEX 00 04:12:29FILE "05 - Rumpus.wav" WAVE INDEX 01 00:00:00 TRACK 06 AUDIO TITLE "Rumpus reprise" PERFORMER "Karen O and the kids" INDEX 00 02:43:69FILE "06 - Rumpus reprise.wav" WAVE INDEX 01 00:00:00 TRACK 07 AUDIO TITLE "Hideaway" PERFORMER "Karen O and the kids" INDEX 00 01:53:35FILE "07 - Hideaway.wav" WAVE INDEX 01 00:00:00 TRACK 08 AUDIO TITLE "Cliffs" PERFORMER "Karen O and the kids" INDEX 00 05:10:69FILE "08 - Cliffs.wav" WAVE INDEX 01 00:00:00 TRACK 09 AUDIO TITLE "Animal" PERFORMER "Karen O and the kids" INDEX 00 02:59:21FILE "09 - Animal.wav" WAVE INDEX 01 00:00:00 TRACK 10 AUDIO TITLE "Lost fur" PERFORMER "Karen O and the kids" INDEX 00 04:10:38FILE "10 - Lost fur.wav" WAVE INDEX 01 00:00:00 TRACK 11 AUDIO TITLE "Heads up" PERFORMER "Karen O and the kids" INDEX 00 01:06:55FILE "11 - Heads up.wav" WAVE INDEX 01 00:00:00FILE "12 - Building all is love.wav" WAVE TRACK 12 AUDIO TITLE "Building all is love" PERFORMER "Karen O and the kids" INDEX 01 00:00:00 TRACK 13 AUDIO TITLE "Food is stll hot" PERFORMER "Karen O and the kids" INDEX 00 03:32:43FILE "13 - Food is stll hot.wav" WAVE INDEX 01 00:00:00 TRACK 14 AUDIO TITLE "Sailing home" PERFORMER "Karen O and the kids" INDEX 00 02:45:05FILE "14 - Sailing home.wav" WAVE INDEX 01 00:00:00


Трекер:  [ 07-Июл-2011 22:53 ]

  

Скачать .torrent

Размер .torrent файла 18 KB


Размер: 221 MB
Хэш (hash) релиза: 6ee0e600fb5d5e4452d0b60913b71f85b0ce651b

Еще никто не оставлял запись к записи скачать торрент Karen O And The Kids - Where The Wild Things Are Там, где живут чудовища - 2009, FLAC . Будь первым!

!Обратная связь