Скачать через торрент музыку Max Richter - Valse Avec Bashir | Waltz with Bashir Вальс с Баширом - 2008, FLAC, бесплатно без регистрации torrent

Статистика раздачи
Размер:  267 MB   |    Зарегистрирован:  7 лет 7 месяцев   |    .torrent скачан:  47 раз   |   
Раздают:  1  
   
загрузка...
 
Автор Сообщение

AqvaGen


Max Richter - Valse Avec Bashir

Жанр: Soundtrack, Modern Classical, Experimental
Год выпуска диска: 2008
Производитель диска: France
Аудио кодек: FLAC
Тип рипа: tracks+.cue
Битрейт аудио: lossless
Продолжительность: 59:30 min
Трэклист:
01 - Max Richter - Boaz And The dogs
02 - Max Richter - Iconography
03 - Max Richter - The Haunted Ocean 1
04 - Max Richter - JSB - RPG
05 - Max Richter - Shadow Journal
06 - OMD - Enola Gay
07 - Max Richter - The Haunted Ocean 2
08 - Max Richter - Taxi And APC
09 - Max Richter - Any Minute Now - Thinking Back
10 - Max Richter - I Swam Out To Sea - Return
11 - Max Richter - Patchouli Oil And Karate
12 - PiL - This is Not A Love Song
13 - Max Richter - What Had They Done
14 - Max Richter - Into The Airport Hallucination
15 - Max Richter - The Slaughterhouse
16 - Max Richter - The Haunted Ocean 3
17 - Max Richter - Into The Camps
18 - Max Richter - The Haunted Ocean 4
19 - Max Richter - Andante-Reflection (End Title)
20 - Max Richter - The Haunted Ocean 5 (Solo Version)


Доп. информация:
Label: EMI
Catalog#: 50999 2343182 9
Format: CD, Album
Country: France
Released: 17 Nov 2008
Genre: Classical, Electronic, Stage & Screen
Style: Soundtrack, Modern Classical, Experimental
Credits: Cello - Chris Worsey (tracks: 1, 3 to 5, 7 to 11, 13 to 20) , Ian Burdge (tracks: 1, 3 to 4, 7 to 11, 13 to 20)
Composed By, Performer, Piano - Max Richter (tracks: 1, 3 to 5, 7 to 11, 13 to 20)
Mastered By - Guy Teixeira
Recorded By, Mixed By - Stuart Hamilton
Violin - Louisa Fuller (tracks: 1, 3 to 5, 7 to 11, 13 to 20) , Natalia Bonner (tracks: 1, 3 to 5, 7 to 11, 13 to 20)
Violin [Alto] - John Metcalfe (tracks: 1, 3 to 5, 7 to 11, 13 to 20)
Notes: Soundtrack of Valse Avec Bachir (Vals Im Bashir) written and directed by Ari Folman (2008)
Track 2 and 5 originally appear on Max Richter's 'The Blue Notebooks' (2004) album.
 
Exact Audio Copy V0.99 prebeta 4 from 23. January 2008

EAC extraction logfile from 4. July 2008, 0:56

Various / Waltz With Bachir

Used drive : TSSTcorpCD/DVDW SH-S182D Adapter: 1 ID: 0

Read mode : SecureUtilize accurate stream : YesDefeat audio cache : YesMake use of C2 pointers : No

Read offset correction : 6Overread into Lead-In and Lead-Out : NoFill up missing offset samples with silence : YesDelete leading and trailing silent blocks : NoNull samples used in CRC calculations : YesUsed interface : Native Win32 interface for Win NT & 2000Gap handling : Appended to previous track

Used output format : User Defined EncoderSelected bitrate : 1024 kBit/sQuality : HighAdd ID3 tag : YesCommand line compressor : C:\FLAC\flac.exeAdditional command line options : -V -8 -T \"artist=%a\" -T \"title=%t\" -T \"album=%g\" -T \"date=%y\" -T \"tracknumber=%n\" -T \"genre=%m\" %s

TOC of the extracted CD

Track | Start | Length | Start sector | End sector --------------------------------------------------------- 1 | 0:00.00 | 3:11.64 | 0 | 14388 2 | 3:11.64 | 3:17.39 | 14389 | 29202 3 | 6:29.28 | 2:07.01 | 29203 | 38728 4 | 8:36.29 | 1:31.45 | 38729 | 45598 5 | 10:07.74 | 8:27.12 | 45599 | 83635 6 | 18:35.11 | 3:33.60 | 83636 | 99670 7 | 22:08.71 | 0:54.19 | 99671 | 103739 8 | 23:03.15 | 2:12.43 | 103740 | 113682 9 | 25:15.58 | 4:16.25 | 113683 | 132907 10 | 29:32.08 | 3:52.31 | 132908 | 150338 11 | 33:24.39 | 0:36.38 | 150339 | 153076 12 | 34:01.02 | 4:11.62 | 153077 | 171963 13 | 38:12.64 | 1:52.61 | 171964 | 180424 14 | 40:05.50 | 3:27.13 | 180425 | 195962 15 | 43:32.63 | 1:35.19 | 195963 | 203106 16 | 45:08.07 | 2:21.64 | 203107 | 213745 17 | 47:29.71 | 3:18.40 | 213746 | 228635 18 | 50:48.36 | 3:44.64 | 228636 | 245499 19 | 54:33.25 | 3:29.58 | 245500 | 261232 20 | 58:03.08 | 1:37.46 | 261233 | 268553

Track 1

Filename H:\FLACs\Waltz With Bachir\01 - Boaz and the dogs.wav

Pre-gap length 0:00:02.00

Peak level 93.7 % Track quality 100.0 % Copy CRC 70105CBC Track not present in AccurateRip database Copy OK

Track 2

Filename H:\FLACs\Waltz With Bachir\02 - Iconography.wav

Peak level 70.5 % Track quality 100.0 % Copy CRC 9383DE6B Track not present in AccurateRip database Copy OK

Track 3

Filename H:\FLACs\Waltz With Bachir\03 - The Haunted ocean 1.wav

Peak level 88.9 % Track quality 100.0 % Copy CRC 24E7C3ED Track not present in AccurateRip database Copy OK

Track 4

Filename H:\FLACs\Waltz With Bachir\04 - JSB - RPG.wav

Peak level 68.1 % Track quality 100.0 % Copy CRC CA156C08 Track not present in AccurateRip database Copy OK

Track 5

Filename H:\FLACs\Waltz With Bachir\05 - Shadow Journal.wav

Peak level 100.0 % Track quality 100.0 % Copy CRC 0E2A3C53 Track not present in AccurateRip database Copy OK

Track 6

Filename H:\FLACs\Waltz With Bachir\06 - Enola Gay.wav

Pre-gap length 0:00:00.14

Peak level 97.9 % Track quality 100.0 % Copy CRC 04FA8BAA Track not present in AccurateRip database Copy OK

Track 7

Filename H:\FLACs\Waltz With Bachir\07 - The Haunted Ocean 2.wav

Peak level 43.4 % Track quality 100.0 % Copy CRC 30AE5AA3 Track not present in AccurateRip database Copy OK

Track 8

Filename H:\FLACs\Waltz With Bachir\08 - Taxi and APC.wav

Peak level 97.5 % Track quality 100.0 % Copy CRC 2093FB44 Track not present in AccurateRip database Copy OK

Track 9

Filename H:\FLACs\Waltz With Bachir\09 - Any minute now - thinking back.wav

Peak level 96.8 % Track quality 99.9 % Copy CRC 7F256519 Track not present in AccurateRip database Copy OK

Track 10

Filename H:\FLACs\Waltz With Bachir\10 - I swam out to sea - return.wav

Peak level 93.6 % Track quality 99.9 % Copy CRC B6F16973 Track not present in AccurateRip database Copy OK

Track 11

Filename H:\FLACs\Waltz With Bachir\11 - Patchouli oil and karate.wav

Peak level 96.7 % Track quality 99.7 % Copy CRC 550950D4 Track not present in AccurateRip database Copy OK

Track 12

Filename H:\FLACs\Waltz With Bachir\12 - This Is Not a Love Song.wav

Pre-gap length 0:00:00.12

Peak level 99.4 % Track quality 100.0 % Copy CRC 819A4A72 Track not present in AccurateRip database Copy OK

Track 13

Filename H:\FLACs\Waltz With Bachir\13 - What had they done .wav

Peak level 41.5 % Track quality 100.0 % Copy CRC 04D6E86B Track not present in AccurateRip database Copy OK

Track 14

Filename H:\FLACs\Waltz With Bachir\14 - Into the airport hallucination.wav

Peak level 97.1 % Track quality 100.0 % Copy CRC A0AB35AA Track not present in AccurateRip database Copy OK

Track 15

Filename H:\FLACs\Waltz With Bachir\15 - The slaughterhouse.wav

Peak level 39.4 % Track quality 100.0 % Copy CRC ADA37C7B Track not present in AccurateRip database Copy OK

Track 16

Filename H:\FLACs\Waltz With Bachir\16 - The Haunted Ocean 3.wav

Peak level 65.3 % Track quality 100.0 % Copy CRC 61F83FA6 Track not present in AccurateRip database Copy OK

Track 17

Filename H:\FLACs\Waltz With Bachir\17 - Into the camps.wav

Peak level 58.9 % Track quality 100.0 % Copy CRC C76D8E1B Track not present in AccurateRip database Copy OK

Track 18

Filename H:\FLACs\Waltz With Bachir\18 - The Haunted Ocean 4.wav

Peak level 95.9 % Track quality 100.0 % Copy CRC 6A2BC1A4 Track not present in AccurateRip database Copy OK

Track 19

Filename H:\FLACs\Waltz With Bachir\19 - Andante-Reflection (End Title).wav

Peak level 48.4 % Track quality 100.0 % Copy CRC 31E5FED9 Track not present in AccurateRip database Copy OK

Track 20

Filename H:\FLACs\Waltz With Bachir\20 - The Haunted Ocean 5 (solo version).wav

Peak level 76.5 % Track quality 100.0 % Copy CRC 8B750C95 Track not present in AccurateRip database Copy OK

None of the tracks are present in the AccurateRip database

No errors occurred

End of status report


Трекер:  [ 21-Дек-2010 15:12 ]

  

Скачать .torrent

Размер .torrent файла 12 KB


Размер: 267 MB
Хэш (hash) релиза: 3b0812105950a2bf7b7618c4fecdcfd53e90f28c

bot

Топик был перенесен в форум Саундтреки к фильмам и мультфильмам (lossless)

Перенес AqvaGen

Хотите добавить комментарий к записи скачать торрент Max Richter - Valse Avec Bashir | Waltz with Bashir Вальс с Баширом - 2008, FLAC,

!Обратная связь