Скачать через торрент музыку Moulin Rouge 2 Мулен Руж 2 - 2001, APE бесплатно без регистрации torrent

Статистика раздачи
Размер:  272 MB   |    Зарегистрирован:  7 лет 4 месяца   |    .torrent скачан:  72 раза   |   
Раздают:  1  
   
загрузка...
 
Автор Сообщение

AqvaGen


Moulin Rouge (2nd Album)

Жанр: Soundtrack
Год выпуска диска: 2001
Производитель диска: США / Австралия
Аудио кодек: APE
Тип рипа: image+.cue
Битрейт аудио: lossless
Продолжительность: 42:52
Трэклист:
1. Your Song - Instrumental (From the "Rehearsal Montage" scene)
2. Sparkling Diamonds (Original Film Version)
3. One Day I'll Fly Away (Tony Phillips Remix)
4. The Pitch - Spectacular Spectacular (Original Film Version)
5. Come What May (Original Film Version)
6. Like A Virgin (Original Film Version)
7. Meet Me In The Red Room (Original Film Version) (performed by Amiel)
8. Your Song - Instrumental (From the "After the Storm" scene)
9. The Show Must Go On (Original Film Version)
10. Ascension / Nature Boy (From the "Death and Ascension scene")
11. Closing Credits: "Bolero" (Original Film Version)

(Twentieth Century Fox Film Corp / Interscope Records 493 228-2)
Содержит сканы 300dpi
 
Exact Audio Copy V0.99 prebeta 4 from 23. January 2008

Отчёт EAC об извлечении, выполненном 1. июля 2009, 0:48

AAVV / Moulin Rouge - Disc 2

Дисковод: PIONEER DVD-RW DVR-216D Adapter: 2 ID: 0

Режим чтения : ДостоверностьИспользование точного потока : ДаОтключение кэша аудио : ДаИспользование указателей C2 : Нет

Коррекция смещения при чтении : 96Способность читать области Lead-in и Lead-out : НетЗаполнение пропущенных сэмплов тишиной : ДаУдаление блоков с тишиной в начале и конце : НетПри вычислениях CRC использовались нулевые сэмплы : ДаИнтерфейс : Установленный внешний ASPI-интерфейс

Выходной формат : Monkey's Audio (без потерь)Выбранный битрейт : High Lossless CompressionКачество : ВысокийДобавление ID3-тэга : НетУтилита сжатия : C:\Program Files (x86)\Monkey's Audio\MAC.exeДополнительные параметры : -6 -V -T "ARTIST=%a" -T "TITLE=%t" -T "ALBUM=%g" -T "DATE=%y" -T "TRACKNUMBER=%n" -T "GENRE=%m" -T "COMMENT=%e" %s -o %d

TOC извлечённого CD

Трек | Старт | Длительность | Начальный сектор | Конечный сектор --------------------------------------------------------------------- 1 | 0:00.00 | 2:28.08 | 0 | 11107 2 | 2:28.08 | 2:52.45 | 11108 | 24052 3 | 5:20.53 | 5:10.69 | 24053 | 47371 4 | 10:31.47 | 2:50.73 | 47372 | 60194 5 | 13:22.45 | 4:38.46 | 60195 | 81090 6 | 18:01.16 | 3:10.01 | 81091 | 95341 7 | 21:11.17 | 2:38.47 | 95342 | 107238 8 | 23:49.64 | 4:55.42 | 107239 | 129405 9 | 28:45.31 | 3:04.14 | 129406 | 143219 10 | 31:49.45 | 4:09.44 | 143220 | 161938 11 | 35:59.14 | 6:53.15 | 161939 | 192928

Характеристики диапазона извлечения и сообщения об ошибках

Выбранный диапазон

Имя файла M:\AAVV - Moulin Rouge - Disc 2.wav

Пиковый уровень 100.0 % Качество диапазона 100.0 % CRC копии 27578B90 Копирование... OK

Ошибок не произошло

AccurateRip: сводка

Трек 1 точность не определена (достоверность 48) [4E4E361D], AccurateRip вернул [A663B45C]Трек 2 точность не определена (достоверность 54) [ED752B34], AccurateRip вернул [9A306E30]Трек 3 точность не определена (достоверность 53) [D561774C], AccurateRip вернул [C2F5D314]Трек 4 точность не определена (достоверность 47) [4ECF8B6C], AccurateRip вернул [BCA0D1BD]Трек 5 точность не определена (достоверность 54) [87491546], AccurateRip вернул [149EEFF4]Трек 6 точность не определена (достоверность 54) [F265939D], AccurateRip вернул [DB63D017]Трек 7 точность не определена (достоверность 47) [87F33E32], AccurateRip вернул [5326FE18]Трек 8 точность не определена (достоверность 50) [98318598], AccurateRip вернул [ACFC04C7]Трек 9 точность не определена (достоверность 53) [72CCFD93], AccurateRip вернул [EF376028]Трек 10 точность не определена (достоверность 46) [D2C9D301], AccurateRip вернул [DCF6EE25]Трек 11 точность не определена (достоверность 46) [D1A44C5A], AccurateRip вернул [B39630DD]

Ни один трек не прошёл проверки на точностьВ вашей базе может быть иной вариант штамповки диска

Конец отчёта
 
Started at: среда, 01. 07. 2009. - 0:50.441 file found

1 -===- M:\OST Molin Rouge - CD2\AAVV - Moulin Rouge - Disc 2.ape Extracted successfully Conclusion: this track is CDDA with probability 100% Tempfile successfully deleted.

Finished at: среда, 01. 07. 2009. - 1:01.27 (operation time: 0:10.43)


Трекер:  [ 19-Дек-2010 15:33 ]

  

Скачать .torrent

Размер .torrent файла 11 KB


Размер: 272 MB
Хэш (hash) релиза: 14b92a0b28768c138df33714ec10b9086f534eee

bot

Топик был перенесен в форум Саундтреки к фильмам и мультфильмам (lossless)

Перенес AqvaGen

Хотите добавить комментарий к записи скачать торрент Moulin Rouge 2 Мулен Руж 2 - 2001, APE

!Обратная связь