Скачать через торрент музыку Resident Evil: Apocalypse Обитель зла 2: Апокалипсис - 2004, FLAC бесплатно без регистрации torrent

Статистика раздачи
Размер:  544 MB   |    Зарегистрирован:  7 лет 1 месяц   |    .torrent скачан:  70 раз   |   
Раздают:  1  
   
загрузка...
 
Автор Сообщение

Galfimbul

avatar Galfimbul


Resident Evil: Apocalypse / Обитель зла 2: Апокалипсис
Жанр: Soundtrack
Год выпуска диска: 2004
Производитель диска: USA
Аудио кодек: FLAC
Тип рипа: tracks+.cue
Битрейт аудио: lossless
Продолжительность: 1:16:13

Трэклист:

01. Slipknot - Vermilion
02. The Used - Just A Little
03. The Cure - Us Or Them
04. Lacuna Coil - Swamped
05. A Perfect Circle - The Outside (Resident Renholder Mix)
06. Killswitch Engage - End Of The Heartache
07. Rammstien - Mein Teil
08. DevilDriver - Digging Up The Corpses
09. Cradle Of Flith - Nymphetamine
10. CKY - Escape From Hellview
11. Deftones - The Chauffeur
12. HIM - Join Me In Death
13. Nightwish - Nemo
14. Thrice - Under A Killing Moon
15. 36 Crazyfists - Bloodwork
16. Cold - End Of The World (acoustic)
17. Rob Zombie - Girl On Fire (Renholder's Apocalypse Mix)
18. Massive Attack - Future Proof
Exact Audio Copy V0.99 prebeta 5 from 4. May 2009

EAC extraction logfile from 24. October 2009, 16:17

Various / Resident Evil: Apocalypse

Used drive : Optiarc DVD RW AD-7170A Adapter: 0 ID: 0

Read mode : Secure
Utilize accurate stream : Yes
Defeat audio cache : Yes
Make use of C2 pointers : No

Read offset correction : 48
Overread into Lead-In and Lead-Out : No
Fill up missing offset samples with silence : Yes
Delete leading and trailing silent blocks : No
Null samples used in CRC calculations : Yes
Used interface : Native Win32 interface for Win NT & 2000
Gap handling : Appended to previous track

Used output format : User Defined Encoder
Selected bitrate : 320 kBit/s
Quality : High
Add ID3 tag : No
Command line compressor : C:\Program Files\Exact Audio Copy\Flac\flac.exe
Additional command line options : -8 -V -T "ARTIST=%a" -T "TITLE=%t" -T "ALBUM=%g" -T "DATE=%y" -T "TRACKNUMBER=%n" -T "GENRE=%m" -T "COMMENT=EAC FLAC -8" %s

TOC of the extracted CD

Track | Start | Length | Start sector | End sector
---------------------------------------------------------
1 | 0:00.00 | 4:14.18 | 0 | 19067
2 | 4:14.18 | 3:27.58 | 19068 | 34650
3 | 7:42.01 | 4:10.20 | 34651 | 53420
4 | 11:52.21 | 3:59.38 | 53421 | 71383
5 | 15:51.59 | 5:26.57 | 71384 | 95890
6 | 21:18.41 | 4:04.49 | 95891 | 114239
7 | 25:23.15 | 4:23.33 | 114240 | 133997
8 | 29:46.48 | 3:52.30 | 133998 | 151427
9 | 33:39.03 | 5:01.19 | 151428 | 174021
10 | 38:40.22 | 3:42.47 | 174022 | 190718
11 | 42:22.69 | 5:24.37 | 190719 | 215055
12 | 47:47.31 | 3:37.09 | 215056 | 231339
13 | 51:24.40 | 4:28.16 | 231340 | 251455
14 | 55:52.56 | 2:42.00 | 251456 | 263605
15 | 58:34.56 | 3:12.54 | 263606 | 278059
16 | 61:47.35 | 3:37.23 | 278060 | 294357
17 | 65:24.58 | 5:11.01 | 294358 | 317683
18 | 70:35.59 | 5:37.42 | 317684 | 343000

Track 1

Filename E:\DownLoad\SoundTrack_Resident Evil Apocalypse\01. Slipknot – Vermilion.wav

Pre-gap length 0:00:02.00

Peak level 100.0 %
Track quality 100.0 %
Test CRC 40C4093F
Copy CRC 40C4093F
Copy OK

Track 2

Filename E:\DownLoad\SoundTrack_Resident Evil Apocalypse\02. The Used – Just A Little.wav

Peak level 98.8 %
Track quality 100.0 %
Test CRC BD747A22
Copy CRC BD747A22
Copy OK

Track 3

Filename E:\DownLoad\SoundTrack_Resident Evil Apocalypse\03. The Cure – Us Or Them.wav

Peak level 100.0 %
Track quality 100.0 %
Test CRC 41160AE9
Copy CRC 41160AE9
Copy OK

Track 4

Filename E:\DownLoad\SoundTrack_Resident Evil Apocalypse\04. Lacuna Coil – Swamped.wav

Peak level 99.4 %
Track quality 100.0 %
Test CRC FBE30471
Copy CRC FBE30471
Copy OK

Track 5

Filename E:\DownLoad\SoundTrack_Resident Evil Apocalypse\05. A Perfect Circle – The Outside (Resident Renholder Mix).wav

Peak level 99.8 %
Track quality 99.9 %
Test CRC F1B8A44B
Copy CRC F1B8A44B
Copy OK

Track 6

Filename E:\DownLoad\SoundTrack_Resident Evil Apocalypse\06. Killswitch Engage – End Of The Heartache.wav

Peak level 98.4 %
Track quality 100.0 %
Test CRC 68674406
Copy CRC 68674406
Copy OK

Track 7

Filename E:\DownLoad\SoundTrack_Resident Evil Apocalypse\07. Rammstien – Mein Teil.wav

Peak level 99.9 %
Track quality 99.8 %
Test CRC 431A4522
Copy CRC E6A33109
Copy OK

Track 8

Filename E:\DownLoad\SoundTrack_Resident Evil Apocalypse\08. DevilDriver – Digging Up The Corpses.wav

Peak level 100.0 %
Track quality 100.0 %
Test CRC 0BDB18B1
Copy CRC 0BDB18B1
Copy OK

Track 9

Filename E:\DownLoad\SoundTrack_Resident Evil Apocalypse\09. Cradle Of Flith – Nymphetamine.wav

Peak level 100.0 %
Track quality 100.0 %
Test CRC 57A422DA
Copy CRC 57A422DA
Copy OK

Track 10

Filename E:\DownLoad\SoundTrack_Resident Evil Apocalypse\10. CKY – Escape From Hellview.wav

Peak level 97.6 %
Track quality 100.0 %
Test CRC D6E9D339
Copy CRC D6E9D339
Copy OK

Track 11

Filename E:\DownLoad\SoundTrack_Resident Evil Apocalypse\11. Deftones – The Chauffeur.wav

Peak level 99.3 %
Track quality 100.0 %
Test CRC 3B4DBAC6
Copy CRC 3B4DBAC6
Copy OK

Track 12

Filename E:\DownLoad\SoundTrack_Resident Evil Apocalypse\12. HIM – Join Me In Death.wav

Peak level 100.0 %
Track quality 100.0 %
Test CRC 0B5E77CC
Copy CRC 0B5E77CC
Copy OK

Track 13

Filename E:\DownLoad\SoundTrack_Resident Evil Apocalypse\13. Nightwish – Nemo.wav

Peak level 94.8 %
Track quality 100.0 %
Test CRC A462922B
Copy CRC A462922B
Copy OK

Track 14

Filename E:\DownLoad\SoundTrack_Resident Evil Apocalypse\14. Thrice – Under A Killing Moon.wav

Peak level 94.3 %
Track quality 100.0 %
Test CRC B150DD7C
Copy CRC B150DD7C
Copy OK

Track 15

Filename E:\DownLoad\SoundTrack_Resident Evil Apocalypse\15. 36 Crazyfists – Bloodwork.wav

Peak level 100.0 %
Track quality 100.0 %
Test CRC A112214A
Copy CRC A112214A
Copy OK

Track 16

Filename E:\DownLoad\SoundTrack_Resident Evil Apocalypse\16. Cold – End Of The World (acoustic).wav

Peak level 81.2 %
Track quality 100.0 %
Test CRC 5031FD6D
Copy CRC 5031FD6D
Copy OK

Track 17

Filename E:\DownLoad\SoundTrack_Resident Evil Apocalypse\17. Rob Zombie – Girl On Fire (Renholder's Apocalypse Mix).wav

Peak level 99.8 %
Track quality 100.0 %
Test CRC 9DE6EE0A
Copy CRC 9DE6EE0A
Copy OK

Track 18

Filename E:\DownLoad\SoundTrack_Resident Evil Apocalypse\18. Massive Attack – Future Proof.wav

Peak level 94.2 %
Track quality 99.9 %
Test CRC 9636C16B
Copy CRC 9636C16B
Copy OK

No errors occurred

End of status report



Трекер:  [ 07-Июл-2011 22:52 ]

  

Скачать .torrent

Размер .torrent файла 12 KB


Размер: 544 MB
Хэш (hash) релиза: a0bd4d1d7a4ba83dd8cad3f6e996de59b5984a8d

Еще никто не оставлял запись к записи скачать торрент Resident Evil: Apocalypse Обитель зла 2: Апокалипсис - 2004, FLAC . Будь первым!

!Обратная связь