Скачать через торрент музыку Хор Glee: The Music, Volume 1 - 2009, FLAC бесплатно без регистрации torrent

Статистика раздачи
Размер:  398 MB   |    Зарегистрирован:  6 лет 9 месяцев   |    .torrent скачан:  69 раз   |   
Раздают:  1  
   
загрузка...
 
Автор Сообщение

Galfimbul

avatar Galfimbul


Glee: The Music, Volume 1
Жанр: Soundtrack
Исполнитель: Various Artists
Год выпуска диска: 2009
Аудио кодек: FLAC
Тип рипа: tracks+.cue
Битрейт аудио: lossless
Продолжительность:01:00:15
Треклист:
01. Don't Stop Believin' (Glee Cast Version) [00:03:52]
02. Can't Fight This Feeling (Glee Cast Version) [00:03:30]
03. Gold Digger (Glee Cast Version) [00:03:01]
04. Take A Bow (Glee Cast Version) [00:03:36]
05. Bust Your Windows (Glee Cast Version) [00:04:20]
06. Taking Chances (Glee Cast Version) [00:03:56]
07. Alone (Glee Cast Version) [00:03:41]
08. Maybe This Time (Glee Cast Version) [00:02:59]
09. Somebody To Love (Glee Cast Version) [00:04:43]
10. Hate On Me (Glee Cast Version) [00:03:30]
11. No Air (Glee Cast Version) [00:04:22]
12. You Keep Me Hangin' On (Glee Cast Version) [00:02:40]
13. Keep Holding On (Glee Cast Version) [00:04:04]
14. Bust A Move (Glee Cast Version) [00:04:24]
15. Sweet Caroline (Glee Cast Version) [00:01:58]
16. Dancing With Myself (Glee Cast Version) [00:03:10]
17. Defying Gravity (Glee Cast Version) [00:02:21]
 
X Lossless Decoder version 20090930 (110.0)

XLD extraction logfile from 2009-11-03 16:49:18 -0400

Various Artists / Glee: The Music, Volume 1

Used drive : HL-DT-ST DVDRW GSA-S10N (revision BP10)

Use cdparanoia mode : YES (CDParanoia III 10.2 engine)Disable audio cache : OK for the drive with cache less than 2750KBMake use of C2 pointers : NORead offset correction : 667Max retry count : 100

TOC of the extracted CD Track | Start | Length | Start sector | End sector --------------------------------------------------------- 1 | 00:00:00 | 03:52:00 | 0 | 17399 2 | 03:52:00 | 03:30:60 | 17400 | 33209 3 | 07:22:60 | 03:01:52 | 33210 | 46836 4 | 10:24:37 | 03:36:50 | 46837 | 63086 5 | 14:01:12 | 04:20:10 | 63087 | 82596 6 | 18:21:22 | 03:56:38 | 82597 | 100334 7 | 22:17:60 | 03:41:52 | 100335 | 116961 8 | 25:59:37 | 02:59:38 | 116962 | 130424 9 | 28:59:00 | 04:43:50 | 130425 | 151699 10 | 33:42:50 | 03:30:50 | 151700 | 167499 11 | 37:13:25 | 04:22:50 | 167500 | 187199 12 | 41:36:00 | 02:40:00 | 187200 | 199199 13 | 44:16:00 | 04:04:25 | 199200 | 217524 14 | 48:20:25 | 04:24:25 | 217525 | 237349 15 | 52:44:50 | 01:58:10 | 237350 | 246209 16 | 54:42:60 | 03:10:65 | 246210 | 260524 17 | 57:53:50 | 02:21:50 | 260525 | 271149

Track 01 Filename : /Users/elie/Downloads/Glee The Music, Volume 1/01 Glee Cast - Don't Stop Believin' (Glee Cast Version).flac

CRC32 hash (test run) : 665CAFEC CRC32 hash : 665CAFEC CRC32 hash (skip zero) : 8CD73568 AccurateRip signature : 2F5455AE ->Track not present in AccurateRip database. Statistics Read error : 0 Skipped (treated as error) : 0 Edge jitter error (maybe fixed) : 0 Atom jitter error (maybe fixed) : 0 Drift error (maybe fixed) : 0 Dropped bytes error (maybe fixed) : 0 Duplicated bytes error (maybe fixed) : 0

Track 02 Filename : /Users/elie/Downloads/Glee The Music, Volume 1/02 Glee Cast - Can't Fight This Feeling (Glee Cast Version).flac

CRC32 hash (test run) : 62DD03E7 CRC32 hash : 62DD03E7 CRC32 hash (skip zero) : 800031B5 AccurateRip signature : 80D59FAA ->Track not present in AccurateRip database. Statistics Read error : 0 Skipped (treated as error) : 0 Edge jitter error (maybe fixed) : 0 Atom jitter error (maybe fixed) : 0 Drift error (maybe fixed) : 0 Dropped bytes error (maybe fixed) : 0 Duplicated bytes error (maybe fixed) : 0

Track 03 Filename : /Users/elie/Downloads/Glee The Music, Volume 1/03 Glee Cast - Gold Digger (Glee Cast Version).flac

CRC32 hash (test run) : 4B930B1A CRC32 hash : 4B930B1A CRC32 hash (skip zero) : D24D7FAD AccurateRip signature : 48390FAA ->Track not present in AccurateRip database. Statistics Read error : 0 Skipped (treated as error) : 0 Edge jitter error (maybe fixed) : 0 Atom jitter error (maybe fixed) : 0 Drift error (maybe fixed) : 0 Dropped bytes error (maybe fixed) : 0 Duplicated bytes error (maybe fixed) : 0

Track 04 Filename : /Users/elie/Downloads/Glee The Music, Volume 1/04 Glee Cast - Take A Bow (Glee Cast Version).flac

CRC32 hash (test run) : 5A5F49B5 CRC32 hash : 5A5F49B5 CRC32 hash (skip zero) : D65912E2 AccurateRip signature : B0B77AF7 ->Track not present in AccurateRip database. Statistics Read error : 0 Skipped (treated as error) : 0 Edge jitter error (maybe fixed) : 0 Atom jitter error (maybe fixed) : 0 Drift error (maybe fixed) : 0 Dropped bytes error (maybe fixed) : 0 Duplicated bytes error (maybe fixed) : 0

Track 05 Filename : /Users/elie/Downloads/Glee The Music, Volume 1/05 Glee Cast - Bust Your Windows (Glee Cast Version).flac

CRC32 hash (test run) : DC7A7DD6 CRC32 hash : DC7A7DD6 CRC32 hash (skip zero) : 1C18CAEA AccurateRip signature : B1A5652D ->Track not present in AccurateRip database. Statistics Read error : 0 Skipped (treated as error) : 0 Edge jitter error (maybe fixed) : 0 Atom jitter error (maybe fixed) : 0 Drift error (maybe fixed) : 0 Dropped bytes error (maybe fixed) : 0 Duplicated bytes error (maybe fixed) : 0

Track 06 Filename : /Users/elie/Downloads/Glee The Music, Volume 1/06 Glee Cast - Taking Chances (Glee Cast Version).flac

CRC32 hash (test run) : 432C3FE2 CRC32 hash : 432C3FE2 CRC32 hash (skip zero) : AF906DAF AccurateRip signature : B4FAF45E ->Track not present in AccurateRip database. Statistics Read error : 0 Skipped (treated as error) : 0 Edge jitter error (maybe fixed) : 0 Atom jitter error (maybe fixed) : 0 Drift error (maybe fixed) : 0 Dropped bytes error (maybe fixed) : 0 Duplicated bytes error (maybe fixed) : 0

Track 07 Filename : /Users/elie/Downloads/Glee The Music, Volume 1/07 Glee Cast Feat. Kristin Chenoweth - Alone (Glee Cast Version).flac

CRC32 hash (test run) : E1C6A2E4 CRC32 hash : E1C6A2E4 CRC32 hash (skip zero) : 79F1C76D AccurateRip signature : 4E93B664 ->Track not present in AccurateRip database. Statistics Read error : 0 Skipped (treated as error) : 0 Edge jitter error (maybe fixed) : 0 Atom jitter error (maybe fixed) : 0 Drift error (maybe fixed) : 0 Dropped bytes error (maybe fixed) : 0 Duplicated bytes error (maybe fixed) : 0

Track 08 Filename : /Users/elie/Downloads/Glee The Music, Volume 1/08 Glee Cast Feat. Kristin Chenoweth - Maybe This Time (Glee Cast Version).flac

CRC32 hash (test run) : 10178652 CRC32 hash : 10178652 CRC32 hash (skip zero) : A3307A6F AccurateRip signature : F9C980D1 ->Track not present in AccurateRip database. Statistics Read error : 0 Skipped (treated as error) : 0 Edge jitter error (maybe fixed) : 0 Atom jitter error (maybe fixed) : 0 Drift error (maybe fixed) : 0 Dropped bytes error (maybe fixed) : 0 Duplicated bytes error (maybe fixed) : 0

Track 09 Filename : /Users/elie/Downloads/Glee The Music, Volume 1/09 Glee Cast - Somebody To Love (Glee Cast Version).flac

CRC32 hash (test run) : 7EC1A767 CRC32 hash : 7EC1A767 CRC32 hash (skip zero) : BCAEA0EC AccurateRip signature : 465B7734 ->Track not present in AccurateRip database. Statistics Read error : 0 Skipped (treated as error) : 0 Edge jitter error (maybe fixed) : 0 Atom jitter error (maybe fixed) : 0 Drift error (maybe fixed) : 0 Dropped bytes error (maybe fixed) : 0 Duplicated bytes error (maybe fixed) : 0

Track 10 Filename : /Users/elie/Downloads/Glee The Music, Volume 1/10 Glee Cast - Hate On Me (Glee Cast Version).flac

CRC32 hash (test run) : D5675BF6 CRC32 hash : D5675BF6 CRC32 hash (skip zero) : ED624127 AccurateRip signature : B270128E ->Track not present in AccurateRip database. Statistics Read error : 0 Skipped (treated as error) : 0 Edge jitter error (maybe fixed) : 0 Atom jitter error (maybe fixed) : 0 Drift error (maybe fixed) : 0 Dropped bytes error (maybe fixed) : 0 Duplicated bytes error (maybe fixed) : 0

Track 11 Filename : /Users/elie/Downloads/Glee The Music, Volume 1/11 Glee Cast - No Air (Glee Cast Version).flac

CRC32 hash (test run) : 20FF69E6 CRC32 hash : 20FF69E6 CRC32 hash (skip zero) : 1203AC6C AccurateRip signature : 4AE1886E ->Track not present in AccurateRip database. Statistics Read error : 0 Skipped (treated as error) : 0 Edge jitter error (maybe fixed) : 0 Atom jitter error (maybe fixed) : 0 Drift error (maybe fixed) : 0 Dropped bytes error (maybe fixed) : 0 Duplicated bytes error (maybe fixed) : 0

Track 12 Filename : /Users/elie/Downloads/Glee The Music, Volume 1/12 Glee Cast - You Keep Me Hangin' On (Glee Cast Version).flac

CRC32 hash (test run) : C449E8E8 CRC32 hash : C449E8E8 CRC32 hash (skip zero) : 7FE9C88B AccurateRip signature : 8878F951 ->Track not present in AccurateRip database. Statistics Read error : 0 Skipped (treated as error) : 0 Edge jitter error (maybe fixed) : 0 Atom jitter error (maybe fixed) : 0 Drift error (maybe fixed) : 0 Dropped bytes error (maybe fixed) : 0 Duplicated bytes error (maybe fixed) : 0

Track 13 Filename : /Users/elie/Downloads/Glee The Music, Volume 1/13 Glee Cast - Keep Holding On (Glee Cast Version).flac

CRC32 hash (test run) : 59E19C30 CRC32 hash : 59E19C30 CRC32 hash (skip zero) : 65DB1EE3 AccurateRip signature : 4AF477AB ->Track not present in AccurateRip database. Statistics Read error : 0 Skipped (treated as error) : 0 Edge jitter error (maybe fixed) : 0 Atom jitter error (maybe fixed) : 0 Drift error (maybe fixed) : 0 Dropped bytes error (maybe fixed) : 0 Duplicated bytes error (maybe fixed) : 0

Track 14 Filename : /Users/elie/Downloads/Glee The Music, Volume 1/14 Glee Cast - Bust A Move (Glee Cast Version).flac

CRC32 hash (test run) : 51E6446C CRC32 hash : 51E6446C CRC32 hash (skip zero) : ABCDC1D8 AccurateRip signature : EA59B128 ->Track not present in AccurateRip database. Statistics Read error : 0 Skipped (treated as error) : 0 Edge jitter error (maybe fixed) : 0 Atom jitter error (maybe fixed) : 0 Drift error (maybe fixed) : 0 Dropped bytes error (maybe fixed) : 0 Duplicated bytes error (maybe fixed) : 0

Track 15 Filename : /Users/elie/Downloads/Glee The Music, Volume 1/15 Glee Cast - Sweet Caroline (Glee Cast Version).flac

CRC32 hash (test run) : 14AF4E7F CRC32 hash : 14AF4E7F CRC32 hash (skip zero) : 1659C668 AccurateRip signature : 4DDBB69A ->Track not present in AccurateRip database. Statistics Read error : 0 Skipped (treated as error) : 0 Edge jitter error (maybe fixed) : 0 Atom jitter error (maybe fixed) : 0 Drift error (maybe fixed) : 0 Dropped bytes error (maybe fixed) : 0 Duplicated bytes error (maybe fixed) : 0

Track 16 Filename : /Users/elie/Downloads/Glee The Music, Volume 1/16 Glee Cast - Dancing With Myself (Glee Cast Version).flac

CRC32 hash (test run) : CB6BCA33 CRC32 hash : CB6BCA33 CRC32 hash (skip zero) : E690236E AccurateRip signature : F3D30458 ->Track not present in AccurateRip database. Statistics Read error : 0 Skipped (treated as error) : 0 Edge jitter error (maybe fixed) : 0 Atom jitter error (maybe fixed) : 0 Drift error (maybe fixed) : 0 Dropped bytes error (maybe fixed) : 0 Duplicated bytes error (maybe fixed) : 0

Track 17 Filename : /Users/elie/Downloads/Glee The Music, Volume 1/17 Glee Cast - Defying Gravity (Glee Cast Version).flac

CRC32 hash (test run) : 0E548CCF CRC32 hash : 0E548CCF CRC32 hash (skip zero) : 1359C3C9 AccurateRip signature : A2343A91 ->Track not present in AccurateRip database. Statistics Read error : 0 Skipped (treated as error) : 0 Edge jitter error (maybe fixed) : 0 Atom jitter error (maybe fixed) : 0 Drift error (maybe fixed) : 0 Dropped bytes error (maybe fixed) : 0 Duplicated bytes error (maybe fixed) : 0

No errors occurred

End of status report


Трекер:  [ 07-Июл-2011 22:51 ]

  

Скачать .torrent

Размер .torrent файла 34 KB


Размер: 398 MB
Хэш (hash) релиза: 781ecbf67e195ae885a47eb257f51c9a14762093

Еще никто не оставлял запись к записи скачать торрент Хор Glee: The Music, Volume 1 - 2009, FLAC . Будь первым!

!Обратная связь