Скачать через торрент музыку VA - Shrek 2 Шрек 2 - 2004, APE бесплатно без регистрации torrent

Статистика раздачи
Размер:  311 MB   |    Зарегистрирован:  7 лет 10 месяцев   |    .torrent скачан:  68 раз   |   
Раздают:  1  
   
загрузка...
 
Автор Сообщение

AqvaGen


(Motion Picture Soundtrack) Shrek 2 / Шрек 2

Жанр: Soundtrack

Год выпуска диска: 2004

Производитель диска: @ 2004 Ukranian Records under license from Universal International Music B.V.

Аудио кодек: APE

Тип рипа: image+.cue

Битрейт аудио: lossless

Продолжительность: 47:49

Трэклист:

01. Accidentally In Love---Counting Crows (03:09)
02. Holding Out For A Hero---Frou Frou (03:23)
03. Changes---Butterfly Boucher feat. David Bowie (03:22)
04. As Lovers Go (Ron Fair Remix)---Dashboard Confessional (03:29)
05. Funkytown---Lipps, Inc. (04:00)
06. I'm On My Way---Rich Price (O3:22)
07. I Need Some Sleep---Eels (02:28)
08. Ever Fallen In Love---Pete Yorn (02:32)
09. Little Drop Of Poison---Tom Waits (03:12)
10. You're So True---Joseph Arthur (03:55)
11. People Ain't No Good---Nick Cave & The Bad Seeds (05:40)
12. Fairy Godmother Song---Jennifer Saunders (01:52)
13. Livin' La Vida Loca---Eddie Murphy & Antonio Banderas (03:29)
14. Holding Out For A Hero (Bonus Track)---Jennifer Saunders (03:56)
Exact Audio Copy V0.99 prebeta 4 from 23. January 2008

Отчёт EAC об извлечении, выполненном 30. января 2009, 8:54

Various / Shrek 2

Дисковод: HL-DT-STDVDRAM GSA-T20N Adapter: 1 ID: 0

Режим чтения : Достоверность
Использование точного потока : Да
Отключение кэша аудио : Да
Использование указателей C2 : Нет

Коррекция смещения при чтении : 667
Способность читать области Lead-in и Lead-out : Нет
Заполнение пропущенных сэмплов тишиной : Да
Удаление блоков с тишиной в начале и конце : Нет
При вычислениях CRC использовались нулевые сэмплы : Да
Интерфейс : Установленный внешний ASPI-интерфейс

Выходной формат : Внутренние WAV-операции
Формат сэмплов : 44.100 Гц; 16 бит; стерео

TOC извлечённого CD

Трек | Старт | Длительность | Начальный сектор | Конечный сектор
---------------------------------------------------------------------
1 | 0:00.00 | 3:08.67 | 0 | 14166
2 | 3:08.67 | 3:22.43 | 14167 | 29359
3 | 6:31.35 | 3:22.07 | 29360 | 44516
4 | 9:53.42 | 3:29.03 | 44517 | 60194
5 | 13:22.45 | 3:59.62 | 60195 | 78181
6 | 17:22.32 | 3:21.53 | 78182 | 93309
7 | 20:44.10 | 2:28.00 | 93310 | 104409
8 | 23:12.10 | 2:32.10 | 104410 | 115819
9 | 25:44.20 | 3:11.45 | 115820 | 130189
10 | 28:55.65 | 3:55.02 | 130190 | 147816
11 | 32:50.67 | 5:39.70 | 147817 | 173311
12 | 38:30.62 | 1:52.28 | 173312 | 181739
13 | 40:23.15 | 3:29.30 | 181740 | 197444
14 | 43:52.45 | 3:56.40 | 197445 | 215184
15 | 50:21.10 | 6:40.57 | 226585 | 256641

Характеристики диапазона извлечения и сообщения об ошибках

Выбранный диапазон

Имя файла D:\Torrents\Готово\Шрек 2 (lossless)wav\Various - Shrek 2.wav

Пиковый уровень 100.0 %
Качество диапазона 100.0 %
CRC копии 302793A3
Копирование... OK

Ошибок не произошло

AccurateRip: сводка

Трек 1 точность не определена (достоверность 62) [D170DD2F], AccurateRip вернул [504106F7]
Трек 2 точность не определена (достоверность 56) [50AF59DC], AccurateRip вернул [44F96C6C]
Трек 3 точность не определена (достоверность 58) [46A525FC], AccurateRip вернул [44C290D4]
Трек 4 точность не определена (достоверность 59) [FE97C11F], AccurateRip вернул [E59D4FD9]
Трек 5 точность не определена (достоверность 60) [3961C68E], AccurateRip вернул [E268E584]
Трек 6 точность не определена (достоверность 59) [585C42C2], AccurateRip вернул [62B290BA]
Трек 7 точность не определена (достоверность 58) [4D8647F9], AccurateRip вернул [F1BCC351]
Трек 8 точность не определена (достоверность 59) [856FE658], AccurateRip вернул [91EB4868]
Трек 9 точность не определена (достоверность 60) [9FFCBD98], AccurateRip вернул [5934F8D7]
Трек 10 точность не определена (достоверность 59) [F412F134], AccurateRip вернул [B191AF45]
Трек 11 точность не определена (достоверность 59) [2E3DA7E3], AccurateRip вернул [5C23A9CB]
Трек 12 точность не определена (достоверность 60) [65FE5652], AccurateRip вернул [0DB07E3A]
Трек 13 точность не определена (достоверность 60) [35046AC8], AccurateRip вернул [D8EDDE10]
Трек 14 точность не определена (достоверность 57) [0CA3DF79], AccurateRip вернул [6A86BF71]

Ни один трек не прошёл проверки на точность
В вашей базе может быть иной вариант штамповки диска

Конец отчёта


Трекер:  [ 29-Дек-2010 22:37 ]

  

Скачать .torrent

Размер .torrent файла 13 KB


Размер: 311 MB
Хэш (hash) релиза: 829d8405dd8d3d46923d88095001b8e68cd2bb3d

bot

Топик был перенесен в форум Саундтреки к фильмам и мультфильмам (lossless)

Перенес AqvaGen

Хотите добавить комментарий к записи скачать торрент VA - Shrek 2 Шрек 2 - 2004, APE

!Обратная связь