Скачать через торрент музыку Залечь на дно в Брюгге In Bruges бесплатно без регистрации torrent

Статистика раздачи
Размер:  226 MB   |    Зарегистрирован:  6 лет 9 месяцев   |    .torrent скачан:  49 раз   |   
Раздают:  1  
   
загрузка...
 
Автор Сообщение

Galfimbul

avatar Galfimbul


Залечь на дно в Брюгге / In Bruges (Carter Burwell)

Жанр: Score
Год выпуска диска: 2008
Производитель диска: USA/Lakeshore
Аудио кодек: FLAC
Тип рипа: image+.cue
Битрейт аудио: lossless
Продолжительность: 44:20
Трэклист:
1. Prologue 1:16
2. Medieval Waters 1:39
3. The Little Dead Boy 1:46
4. St. John The Gambler (Towens Van Zandt) 3:03
5. The Last Jugdement 1:51
6. View From The Tower 1:03
7. My Suicide Your Homicide 1:38
8. Brandy Alexander (The Walkmen) 2:29
9. Save The Next Boy 1:19
10. Ray At The Mirror 1:19
11. Walking Bruges 0:36
12. The Magic Frog 0:49
13. Schubert: 24. Der Leiermann (Andreas Schmidt) 3:40
14. Harry Walks 1:21
15. Dressing For Death 1:11
16. The Kiss Walk Past 1:04
17. On Raglan Road (The Dubliners) 4:15
18. Thugs Passing In The Night 1:12
19. Shootout Part 1 2:10
20. When He's Dead 1:08
21. Shootout part 2 2:43
22. Principles 1:24
23. I Didn't Want To Die 1:35
24. 2000 Miles (Pretenders) 3:38
 
Exact Audio Copy V0.99 prebeta 5 from 4. May 2009

EAC extraction logfile from 13. October 2009, 15:15

Carter Burwell / In Bruges

Used drive : _NEC DVD_RW ND-4570A Adapter: 1 ID: 0

Read mode : SecureUtilize accurate stream : YesDefeat audio cache : YesMake use of C2 pointers : No

Read offset correction : 48Overread into Lead-In and Lead-Out : NoFill up missing offset samples with silence : YesDelete leading and trailing silent blocks : NoNull samples used in CRC calculations : YesUsed interface : Native Win32 interface for Win NT & 2000

Used output format : User Defined EncoderSelected bitrate : 128 kBit/sQuality : HighAdd ID3 tag : NoCommand line compressor : C:\Program Files\Exact Audio Copy\Flac\flac.exeAdditional command line options : -8 -V %s

TOC of the extracted CD

Track | Start | Length | Start sector | End sector --------------------------------------------------------- 1 | 0:00.00 | 1:16.45 | 0 | 5744 2 | 1:16.45 | 1:39.54 | 5745 | 13223 3 | 2:56.24 | 1:46.23 | 13224 | 21196 4 | 4:42.47 | 3:03.18 | 21197 | 34939 5 | 7:45.65 | 1:51.40 | 34940 | 43304 6 | 9:37.30 | 1:03.39 | 43305 | 48068 7 | 10:40.69 | 1:38.04 | 48069 | 55422 8 | 12:18.73 | 2:29.46 | 55423 | 66643 9 | 14:48.44 | 1:19.00 | 66644 | 72568 10 | 16:07.44 | 1:19.23 | 72569 | 78516 11 | 17:26.67 | 0:36.11 | 78517 | 81227 12 | 18:03.03 | 0:49.66 | 81228 | 84968 13 | 18:52.69 | 3:40.25 | 84969 | 101493 14 | 22:33.19 | 1:21.43 | 101494 | 107611 15 | 23:54.62 | 1:11.04 | 107612 | 112940 16 | 25:05.66 | 1:04.35 | 112941 | 117775 17 | 26:10.26 | 4:14.72 | 117776 | 136897 18 | 30:25.23 | 1:12.41 | 136898 | 142338 19 | 31:37.64 | 2:10.03 | 142339 | 152091 20 | 33:47.67 | 1:08.15 | 152092 | 157206 21 | 34:56.07 | 2:43.53 | 157207 | 169484 22 | 37:39.60 | 1:24.39 | 169485 | 175823 23 | 39:04.24 | 1:35.07 | 175824 | 182955 24 | 40:39.31 | 3:38.12 | 182956 | 199317

Range status and errors

Selected range

Filename D:\Carter Burwell\In Bruges\Carter Burwell - In Bruges.wav

Peak level 100.0 % Range quality 100.0 % Test CRC FFD8CED3 Copy CRC FFD8CED3 Copy OK

No errors occurred

AccurateRip summary

Track 1 not present in databaseTrack 2 not present in databaseTrack 3 not present in databaseTrack 4 not present in databaseTrack 5 not present in databaseTrack 6 not present in databaseTrack 7 not present in databaseTrack 8 not present in databaseTrack 9 not present in databaseTrack 10 not present in databaseTrack 11 not present in databaseTrack 12 not present in databaseTrack 13 not present in databaseTrack 14 not present in databaseTrack 15 not present in databaseTrack 16 not present in databaseTrack 17 not present in databaseTrack 18 not present in databaseTrack 19 not present in databaseTrack 20 not present in databaseTrack 21 not present in databaseTrack 22 not present in databaseTrack 23 not present in databaseTrack 24 not present in database

None of the tracks are present in the AccurateRip database

End of status report


Трекер:  [ 07-Июл-2011 22:51 ]

  

Скачать .torrent

Размер .torrent файла 18 KB


Размер: 226 MB
Хэш (hash) релиза: c4464ffaadc32a56432915f171624e28549265da

Торренты, похожие на Залечь на дно в Брюгге In Bruges скачать торрент

Форум Название Автор Размер S L Добавлен
Саундтреки к фильмам и мультфильмам (mp3) ·· (Score) In Bruges / Залечь на дно в Брюгге (Carter Burwell) - 2008, MP3 (tracks), 320 kbps AqvaGen 112252844107 MB 0 0 1292265127

21:32

13-Дек-10

Еще никто не оставлял запись к записи скачать торрент Залечь на дно в Брюгге In Bruges . Будь первым!

!Обратная связь