Скачать через торрент музыку Лузеры Хор бесплатно без регистрации torrent

Статистика раздачи
Размер:  258 MB   |    Зарегистрирован:  7 лет 11 месяцев   |    .torrent скачан:  55 раз   |   
Раздают:  1  
   
загрузка...
 
Автор Сообщение

AqvaGen


Лузеры / Хор / Glee: The Music, Christmas Album

Жанр: Soundtrack
Композитор: Glee Cast, Darren Criss, K.D. Lang
Год выпуска диска / фильма: 2010
Страна-производитель диска: США
Издатель (лейбл): Columbia
Номер по каталогу: 778567
Аудио кодек: FLAC (*.flac)
Тип рипа: tracks+.cue
Битрейт аудио: lossless
Продолжительность: 00:38:29
Источник: CD
Наличие сканов в содержимом раздачи: нет
Треклист:
01. We Need A Little Christmas (Glee Cast Version)
02. Deck The Rooftop (Glee Cast Version)
03. Merry Christmas Darling (Glee Cast Version)
04. Baby, It’s Cold Outside (Glee Cast Version)
05. The Most Wonderful Day Of The Year (Glee Cast Version)
06. Last Christmas (Glee Cast Version)
07. God Rest Ye Merry Gentlemen (Glee Cast Version)
08. O Christmas Tree (Glee Cast Version)
09. Jingle Bells (Glee Cast Version)
10. You’re a Mean One, Mr. Grinch (Glee Cast Version)
11. Angels We Have Heard On High (Glee Cast Version)
12. O Holy Night (Glee Cast Version)
 
Exact Audio Copy V0.99 prebeta 5 from 4. May 2009

EAC extraction logfile from 19. November 2010, 18:53

Glee Cast / Glee: The Music, The Christmas Album

Used drive : HL-DT-STDVDRAM GT20L Adapter: 1 ID: 0

Read mode : SecureUtilize accurate stream : YesDefeat audio cache : YesMake use of C2 pointers : No

Read offset correction : 667Overread into Lead-In and Lead-Out : NoFill up missing offset samples with silence : YesDelete leading and trailing silent blocks : NoNull samples used in CRC calculations : YesUsed interface : Native Win32 interface for Win NT & 2000Gap handling : Appended to previous track

Used output format : User Defined EncoderSelected bitrate : 320 kBit/sQuality : HighAdd ID3 tag : NoCommand line compressor : C:\Program Files (x86)\Exact Audio Copy\Flac\flac.exeAdditional command line options : -V -8 -T "artist=%a" -T "title=%t" -T "album=%g" -T "date=%y" -T "tracknumber=%n" -T "genre=%m" %s

TOC of the extracted CD

Track | Start | Length | Start sector | End sector --------------------------------------------------------- 1 | 0:00.00 | 2:45.42 | 0 | 12416 2 | 2:45.42 | 2:32.11 | 12417 | 23827 3 | 5:17.53 | 3:04.72 | 23828 | 37699 4 | 8:22.50 | 2:48.64 | 37700 | 50363 5 | 11:11.39 | 2:02.33 | 50364 | 59546 6 | 13:13.72 | 3:37.69 | 59547 | 75890 7 | 16:51.66 | 3:11.72 | 75891 | 90287 8 | 20:03.63 | 3:02.23 | 90288 | 103960 9 | 23:06.11 | 2:56.67 | 103961 | 117227 10 | 26:03.03 | 3:20.19 | 117228 | 132246 11 | 29:23.22 | 4:24.73 | 132247 | 152119 12 | 33:48.20 | 5:01.54 | 152120 | 174748

Track 1

Filename C:\Users\Anthony\Desktop\FLAC\01 We Need A Little Christmas.wav

Pre-gap length 0:00:02.00

Peak level 98.8 % Track quality 100.0 % Test CRC 1B3F1FBE Copy CRC 1B3F1FBE Copy OK

Track 2

Filename C:\Users\Anthony\Desktop\FLAC\02 Deck The Rooftop.wav

Pre-gap length 0:00:01.08

Peak level 98.8 % Track quality 100.0 % Test CRC 047333A8 Copy CRC 047333A8 Copy OK

Track 3

Filename C:\Users\Anthony\Desktop\FLAC\03 Merry Christmas Darling.wav

Pre-gap length 0:00:02.24

Peak level 98.8 % Track quality 99.9 % Test CRC C6B95BB0 Copy CRC C6B95BB0 Copy OK

Track 4

Filename C:\Users\Anthony\Desktop\FLAC\04 Baby, It's Cold Outside [feat. Darren Criss].wav

Pre-gap length 0:00:02.36

Peak level 98.8 % Track quality 100.0 % Test CRC F66B2E20 Copy CRC F66B2E20 Copy OK

Track 5

Filename C:\Users\Anthony\Desktop\FLAC\05 The Most Wonderful Day Of The Year.wav

Pre-gap length 0:00:02.30

Peak level 98.8 % Track quality 100.0 % Test CRC 107A378B Copy CRC 107A378B Copy OK

Track 6

Filename C:\Users\Anthony\Desktop\FLAC\06 Last Christmas.wav

Pre-gap length 0:00:01.45

Peak level 98.8 % Track quality 100.0 % Test CRC ED3B172A Copy CRC ED3B172A Copy OK

Track 7

Filename C:\Users\Anthony\Desktop\FLAC\07 God Rest Ye Merry Gentlemen.wav

Pre-gap length 0:00:01.29

Peak level 98.8 % Track quality 100.0 % Test CRC 94C1667A Copy CRC 94C1667A Copy OK

Track 8

Filename C:\Users\Anthony\Desktop\FLAC\08 O Christmas Tree.wav

Pre-gap length 0:00:02.20

Peak level 98.8 % Track quality 99.9 % Test CRC CBD5E228 Copy CRC CBD5E228 Copy OK

Track 9

Filename C:\Users\Anthony\Desktop\FLAC\09 Jingle Bells.wav

Pre-gap length 0:00:02.36

Peak level 98.8 % Track quality 100.0 % Test CRC 40BD89D1 Copy CRC 40BD89D1 Copy OK

Track 10

Filename C:\Users\Anthony\Desktop\FLAC\10 You're A Mean One, Mr. Grinch [feat. k.d. lang].wav

Pre-gap length 0:00:01.68

Peak level 97.7 % Track quality 99.9 % Test CRC AF6ACDD3 Copy CRC AF6ACDD3 Copy OK

Track 11

Filename C:\Users\Anthony\Desktop\FLAC\11 Angels We Have Heard On High.wav

Pre-gap length 0:00:02.00

Peak level 98.8 % Track quality 99.9 % Test CRC 1FEC6E0B Copy CRC 1FEC6E0B Copy OK

Track 12

Filename C:\Users\Anthony\Desktop\FLAC\12 O Holy Night.wav

Pre-gap length 0:00:01.78

Peak level 98.8 % Track quality 100.0 % Test CRC 6A8C298D Copy CRC 6A8C298D Copy OK

No errors occurred

End of status report
 
REM GENRE HolidayREM DATE 2010REM DISCID 9509190CREM COMMENT "ExactAudioCopy v0.99pb5"PERFORMER "Glee Cast"TITLE "Glee: The Music, The Christmas Album"FILE "01 We Need A Little Christmas.flac" FLAC TRACK 01 AUDIO TITLE "We Need A Little Christmas" PERFORMER "Glee Cast" INDEX 01 00:00:00 TRACK 02 AUDIO TITLE "Deck The Rooftop" PERFORMER "Glee Cast" INDEX 00 02:44:36FILE "02 Deck The Rooftop.flac" FLAC INDEX 01 00:00:00 TRACK 03 AUDIO TITLE "Merry Christmas Darling" PERFORMER "Glee Cast" INDEX 00 02:29:68FILE "03 Merry Christmas Darling.flac" FLAC INDEX 01 00:00:00 TRACK 04 AUDIO TITLE "Baby, It's Cold Outside [feat. Darren Criss]" PERFORMER "Glee Cast" INDEX 00 03:02:45FILE "04 Baby, It's Cold Outside [feat. Darren Criss].flac" FLAC INDEX 01 00:00:00 TRACK 05 AUDIO TITLE "The Most Wonderful Day Of The Year" PERFORMER "Glee Cast" INDEX 00 02:46:41FILE "05 The Most Wonderful Day Of The Year.flac" FLAC INDEX 01 00:00:00 TRACK 06 AUDIO TITLE "Last Christmas" PERFORMER "Glee Cast" INDEX 00 02:00:74FILE "06 Last Christmas.flac" FLAC INDEX 01 00:00:00 TRACK 07 AUDIO TITLE "God Rest Ye Merry Gentlemen" PERFORMER "Glee Cast" INDEX 00 03:36:47FILE "07 God Rest Ye Merry Gentlemen.flac" FLAC INDEX 01 00:00:00 TRACK 08 AUDIO TITLE "O Christmas Tree" PERFORMER "Glee Cast" INDEX 00 03:09:57FILE "08 O Christmas Tree.flac" FLAC INDEX 01 00:00:00 TRACK 09 AUDIO TITLE "Jingle Bells" PERFORMER "Glee Cast" INDEX 00 02:59:71FILE "09 Jingle Bells.flac" FLAC INDEX 01 00:00:00 TRACK 10 AUDIO TITLE "You're A Mean One, Mr. Grinch [feat. k.d. lang]" PERFORMER "Glee Cast" INDEX 00 02:55:16FILE "10 You're A Mean One, Mr. Grinch [feat. k.d. lang].flac" FLAC INDEX 01 00:00:00 TRACK 11 AUDIO TITLE "Angels We Have Heard On High" PERFORMER "Glee Cast" INDEX 00 03:18:19FILE "11 Angels We Have Heard On High.flac" FLAC INDEX 01 00:00:00 TRACK 12 AUDIO TITLE "O Holy Night" PERFORMER "Glee Cast" INDEX 00 04:23:14FILE "12 O Holy Night.flac" FLAC INDEX 01 00:00:00



Трекер:  [ 19-Дек-2010 15:32 ]

  

Скачать .torrent

Размер .torrent файла 11 KB


Размер: 258 MB
Хэш (hash) релиза: d13bf83af9a2e06692be86a28d44c1dd358df0c0

bot

Топик был перенесен в форум Саундтреки к фильмам и мультфильмам (lossless)

Перенес AqvaGen

Хотите добавить комментарий к записи скачать торрент Лузеры Хор

!Обратная связь