Скачать через торрент музыку Король Лев The Lion King бесплатно без регистрации torrent

Статистика раздачи
Размер:  305 MB   |    Зарегистрирован:  7 лет 4 месяца   |    .torrent скачан:  94 раза   |   
Раздают:  1  
   
загрузка...
 
Автор Сообщение

Galfimbul

avatar Galfimbul


Король Лев / The Lion King

Жанр: Soundtrack
Композитор: Hans Zimmer, Elton John
Год выпуска диска: 2003
Год выпуска фильма: 1994
Страна-производитель диска: US
Аудио кодек: FLAC (*.flac)
Тип рипа: image+.cue
Битрейт аудио: lossless
Продолжительность: 52:15
Источник: собственный рип
Наличие сканов в содержимом раздачи: нет

Треклист:
01. Circle Of Life - Carmen Twillie. African Vocals performed by Lebo M
02. I Just Can’t Wait To Be King - Jason Weaver with Rowan Atkinson and Laura Williams
03. Be Prepared - Jeremy Irons with Whoopi Goldberg, Cheech Marin and Jim Cummings
04. Hakuna Matata - Nathan Lane and Ernie Sabella with Jason Weaver and Joseph Williams
05. Can You Feel The Love Tonight - Joseph Williams and Sally Dworsky with Nathan Lane, Ernie Sabella and Kristle Edwards
06. The Morning Report - James Earl Jones, Jeff Bennett and Evan Saucedo
07. This Land (Instrumental) - Hans Zimmer
08. To Die For (Instrumental) - Hans Zimmer
09. Under The Stars (Instrumental) - Hans Zimmer
10. King Of Pride Rock (Instrumental) - Hans Zimmer
11. Circle Of Life - Elton John
12. I Just Can’t Wait To Be King - Elton John
13. Can You Feel The Love Tonight - Elton John
14. Can You Feel The Love Tonight (Remix) - Elton John
 
Exact Audio Copy V0.99 prebeta 5 from 4. May 2009

EAC extraction logfile from 15. July 2010, 20:06

Soundtrack / The Lion King (Special Edition)

Used drive : Optiarc DVD RW AD-7633A Adapter: 0 ID: 0

Read mode : SecureUtilize accurate stream : YesDefeat audio cache : YesMake use of C2 pointers : No

Read offset correction : 48Overread into Lead-In and Lead-Out : NoFill up missing offset samples with silence : YesDelete leading and trailing silent blocks : NoNull samples used in CRC calculations : YesUsed interface : Native Win32 interface for Win NT & 2000

Used output format : User Defined EncoderSelected bitrate : 768 kBit/sQuality : HighAdd ID3 tag : NoCommand line compressor : C:\Program Files\Exact Audio Copy\FLAC\FLAC.EXEAdditional command line options : -8 -V %s

TOC of the extracted CD

Track | Start | Length | Start sector | End sector --------------------------------------------------------- 1 | 0:00.00 | 3:59.27 | 0 | 17951 2 | 3:59.27 | 2:50.60 | 17952 | 30761 3 | 6:50.12 | 3:40.20 | 30762 | 47281 4 | 10:30.32 | 3:33.48 | 47282 | 63304 5 | 14:04.05 | 2:57.65 | 63305 | 76644 6 | 17:01.70 | 1:36.62 | 76645 | 83906 7 | 18:38.57 | 2:55.43 | 83907 | 97074 8 | 21:34.25 | 4:17.50 | 97075 | 116399 9 | 25:52.00 | 3:45.15 | 116400 | 133289 10 | 29:37.15 | 5:59.05 | 133290 | 160219 11 | 35:36.20 | 4:51.50 | 160220 | 182094 12 | 40:27.70 | 3:36.72 | 182095 | 198366 13 | 44:04.67 | 4:01.73 | 198367 | 216514 14 | 48:06.65 | 4:08.58 | 216515 | 235172 15 | 54:47.48 | 1:19.20 | 246573 | 252517

Range status and errors

Selected range

Filename E:\_CD_Grab\Soundtrack - The Lion King (Special Edition).wav

Peak level 97.0 % Range quality 100.0 % Test CRC 203A6175 Copy CRC 203A6175 Copy OK

No errors occurred

AccurateRip summary

Track 1 accurately ripped (confidence 31) [F92AAA3C]Track 2 accurately ripped (confidence 31) [D74438BB]Track 3 accurately ripped (confidence 31) [D8F6CE40]Track 4 accurately ripped (confidence 31) [FF27743F]Track 5 accurately ripped (confidence 31) [A24ADAFA]Track 6 accurately ripped (confidence 31) [EBCED7ED]Track 7 accurately ripped (confidence 31) [4206E89E]Track 8 accurately ripped (confidence 30) [FECFD728]Track 9 accurately ripped (confidence 30) [86A3A33D]Track 10 accurately ripped (confidence 30) [6838405C]Track 11 accurately ripped (confidence 31) [87FE8FDA]Track 12 accurately ripped (confidence 31) [69C7C512]Track 13 accurately ripped (confidence 30) [FD249470]Track 14 accurately ripped (confidence 29) [61416E72]

All tracks accurately ripped

End of status report
 
REM GENRE SoundtrackREM DATE 1994REM DISCID D10D260FREM COMMENT "ExactAudioCopy v0.99pb5"PERFORMER "Soundtrack"TITLE "The Lion King (Special Edition)"FILE "Soundtrack - The Lion King (Special Edition).flac" WAVE TRACK 01 AUDIO TITLE "Circle Of Life [Carmen Twillie & Lebo M]" PERFORMER "Soundtrack" INDEX 01 00:00:00 TRACK 02 AUDIO TITLE "I Just Can't Wait To Be King [Jason Weaver, Rowan Atkinson & Laura Williams]" PERFORMER "Soundtrack" INDEX 01 03:59:27 TRACK 03 AUDIO TITLE "Be Prepared [Jeremy Irons, Whoopi Goldberg, Cheech Marin & Jim Cummings]" PERFORMER "Soundtrack" INDEX 01 06:50:12 TRACK 04 AUDIO TITLE "Hakuna Matata [Nathan Lane, Ernie Sabella, Jason Weaver & Joseph Williams]" PERFORMER "Soundtrack" INDEX 01 10:30:32 TRACK 05 AUDIO TITLE "Can You Feel The Love Tonight [Joseph Williams, Sally Dworsky, Nathan Lane, E..." PERFORMER "Soundtrack" INDEX 01 14:04:05 TRACK 06 AUDIO TITLE "The Morning Report [James Earl Jones, Jeff Bennett & Evan Saucedo]" PERFORMER "Soundtrack" INDEX 01 17:01:70 TRACK 07 AUDIO TITLE "This Land [Hans Zimmer]" PERFORMER "Soundtrack" INDEX 01 18:38:57 TRACK 08 AUDIO TITLE "...To Die For [Hans Zimmer]" PERFORMER "Soundtrack" INDEX 01 21:34:25 TRACK 09 AUDIO TITLE "Under The Stars [Hans Zimmer]" PERFORMER "Soundtrack" INDEX 01 25:52:00 TRACK 10 AUDIO TITLE "King Of Pride Rock [Hans Zimmer]" PERFORMER "Soundtrack" INDEX 01 29:37:15 TRACK 11 AUDIO TITLE "Circle Of Life [Elton John]" PERFORMER "Soundtrack" INDEX 01 35:36:20 TRACK 12 AUDIO TITLE "I Just Can't Wait To Be King [Elton John]" PERFORMER "Soundtrack" INDEX 01 40:27:70 TRACK 13 AUDIO TITLE "Can You Feel The Love Tonight [Elton John]" PERFORMER "Soundtrack" INDEX 01 44:04:67 TRACK 14 AUDIO TITLE "Can You Feel The Love Tonight (Remix) [Elton John]" PERFORMER "Soundtrack" INDEX 01 48:06:65
All the musical majesty of the original recording by Academy Award - winning lyricist, Tim Rice, Grammy Award winning writer and producer, Elton John, and renowned composer Hans Zimmer is now magnificently enhanced with the never-before released song "The morning Report" from the all-new animated sequence plus the remix of Elton John's timeless hit, "Can You Feel the Love Tonight".


Трекер:  [ 07-Июл-2011 22:50 ]

  

Скачать .torrent

Размер .torrent файла 24 KB


Размер: 305 MB
Хэш (hash) релиза: 2f2a0ea27d14291f3fb90e3705c8121ce1886a16

Торренты, похожие на Король Лев The Lion King скачать торрент

Форум Название Автор Размер S L Добавлен
Саундтреки ·· (Score) Король лев / The Lion King (The Lion King Complete Score) (Hans Zimmer) - 2005, MP3, 192 kbps Galfimbul 111518885106 MB 0 0 1339791960

23:26

15-Июн-12

Саундтреки к фильмам и мультфильмам (mp3) ·· (OST) Король Лев / The Lion King / Le Roi Lion (French version) - 1994, MP3 (tracks), 320 kbps AqvaGen 105285308100 MB 0 0 1292268104

22:21

13-Дек-10

Саундтреки к фильмам и мультфильмам (mp3) ·· (Score) Король Лев / The Lion King [Complete Score/The Legacy Collection] (Hans Zimmer, Don Harper & VA) - 1994-2014, MP3, 320 kbps Galfimbul 593080798566 MB 0 0 1430556731

11:52

2-Май-15

Саундтреки к фильмам и мультфильмам (mp3) ·· (Score) Король-Лев / The Lion King: Rhythm of the Pride Lands (by Lebo M.) - 1995, MP3 (tracks), 320 kbps Galfimbul 113415790108 MB 0 0 1292265866

21:44

13-Дек-10

Саундтреки к фильмам и мультфильмам (mp3) ·· (Soundtrack) Король Лев / The Lion King (Special Edition + Rhythm Of The Pride Lands Bonus CD) (Elton John & Hans Zimmer & Lebo M) - 2003, MP3 (tracks), 320kbps Phoenix 249052551238 MB 0 0 1292265098

21:31

13-Дек-10

Саундтреки к фильмам и мультфильмам (mp3) ·· (Score) Король Лев / The Lion King [Complete Motion Picture Score] (Hans Zimmer & VA) - 1994, MP3, 320 kbps Galfimbul 230587141220 MB 0 0 1430580337

18:25

2-Май-15

Саундтреки к фильмам и мультфильмам (mp3) ·· (Soundtrack) Король Лев / The Lion King Collection [Deluxe Edition] (VA) - 2011, MP3, 320 kbps Galfimbul 266227680254 MB 0 0 1430560467

12:54

2-Май-15

Саундтреки к фильмам и мультфильмам (mp3) ·· (Score) Король лев / The Lion King (Complete Score) (Hans Zimmer) - 1994, MP3 (tracks), 192 kbps Galfimbul 142819416136 MB 0 0 1292265765

21:42

13-Дек-10

Саундтреки к фильмам и мультфильмам (mp3) ·· (OST) Король Лев 2 / The Lion King II / Le Roi Lion 2 - Le Disque D'or (French version) - 1999, MP3 (tracks), 128-320 kbps Galfimbul 155188800148 MB 0 0 1292265900

21:45

13-Дек-10

Саундтреки к фильмам и мультфильмам (lossless) ·· (Soundtrack) Hans Zimmer, Elton John & VA - The Lion King / Король Лев - 1994, FLAC (image+.cue), lossless Galfimbul 289012563276 MB 0 0 1292268477

22:27

13-Дек-10

Саундтреки к фильмам и мультфильмам (mp3) ·· (OST) Король лев 3 / The Lion King 1 1/2 - 2004, MP3 (tracks), 192 kbps Galfimbul 3286136531 MB 0 0 1292266221

21:50

13-Дек-10

Саундтреки к фильмам и мультфильмам (mp3) ·· (OST) The Lion King / Король Лев - 1994, MP3 (tracks), 320 kbps AqvaGen 110467072105 MB 0 0 1292265188

21:33

13-Дек-10

Еще никто не оставлял запись к записи скачать торрент Король Лев The Lion King . Будь первым!

!Обратная связь