Скачать через торрент музыку John Williams - Star Wars Trilogy: The Original Soundtrack Anthology - 1993, FLAC бесплатно без регистрации torrent

Статистика раздачи
Размер:  1.46 GB   |    Зарегистрирован:  7 лет 4 месяца   |    .torrent скачан:  61 раз   |   
Раздают:  1  
   
загрузка...
 
Автор Сообщение

AqvaGen


Star Wars Trilogy
John Williams, London Symphony Orchestra


Жанр: Score
Год выпуска диска: 1993
Производитель диска: US (Arista, #: 07822-11012-2, 07822-11012-2)
Аудио кодек: FLAC
Тип рипа: tracks+.cue
Битрейт аудио: lossless
Продолжительность: 04:54:49
1. Twentieth Century Fox Fanfare With CinemaScope Extension (00:22)
Composed By Alfred Newman (1954)
2. Main Title (05:23)
3. Imperial Attack (06:41)
Contains Previously Unreleased Music
4. The Desert/The Robot Auction (02:51)
5. The Little People Work (04:08)
6. The Princess Appears (04:06)
7. The Land of the Sand People (02:55)
8. The Return Home (02:48)
9. Inner City (04:44)
Contains Previously Unreleased Music
10. Mouse Robot/Blasting Off (04:03)
11. Rescue of the Princess (04:48)
12. The Walls Converge (04:33)
13. Ben's Death/TIE Fighter Attack (03:51)
14. Princess Leia's Theme (04:23)
15. The Last Battle (12:13)
16. The Throne Room/End Titles (05:32)
1. Twentieth Century Fox Fanfare With CinemaScope Extension (00:22)
Composed By Alfred Newman (1954)
2. Main Title/The Imperial Probe (Extended Version) (07:58)
Contains Previously Unreleased Music
3. Luke's Escape (03:34)
Contains Previously Unreleased Music
4. Luke's Rescue (01:45)
5. The Imperial March (Darth Vader's Theme) (02:59)
6. The Battle in the Snow (03:45)
7. Luke's First Crash (04:12)
Contains Previously Unreleased Music
8. The Rebels Escape Again (02:59)
9. The Asteroid Field (04:14)
10. Yoda's Theme (03:26)
11. Han Solo and the Princess (03:26)
12. The Training of a Jedi Knight (03:13)
13. The Magic Tree (03:32)
14. Yoda and the Force (04:02)
15. City in the Clouds (06:50)
Contains Previously Unreleased Music
16. Lando's Palace (03:52)
17. The Duel (04:14)
18. Hyperspace (04:03)
19. Finale/End Credits (06:18)
1. Twentieth Century Fox Fanfare With CinemaScope Extension (00:22)
Composed By Alfred Newman (1954)
2. Main Title/Approaching the Death Star (05:18)
3. Han Solo Returns (At the Court of Jabba the Hutt) (04:06)
4. Fight in the Dungeon (03:38)
Contains Previously Unreleased Music
5. The Return of the Jedi (04:59)
6. The Emperor Arrives (02:05)
Contains Previously Unreleased Music
7. The Death of Yoda (06:03)
Contains Previously Unreleased Music
8. Parade of the Ewoks (03:25)
9. Luke and Leia (04:43)
10. The Emperor Confronts Luke (03:26)
Contains Previously Unreleased Music
11. Into the Trap (02:36)
12. First Ewok Battle/Fight With the Fighters (07:18)
Contains Previously Unreleased Music
13. The Forest Battle (04:01)
14. Final Duel/Into the Death Star (03:37)
Contains Previously Unreleased Music
15. The Emperor's Death (02:41)
16. Darth Vader's Death (02:31)
Contains Previously Unreleased Music
17. Through the Flames (01:36)
Contains Previously Unreleased Music
18. Leia Breaks the News/Funeral Pyre For a Jedi (02:19)
19. Ewok Celebration/Finale (07:58)
1. Twentieth Century Fox Fanfare With CinemaScope Extension (00:22)
Composed By Alfred Newman (1954)
2. Main Title (Alternate) (02:16)
Contains Previously Unreleased Music From STAR WARS: EPISODE IV - A NEW HOPE
3. Heroic Ewok/The Fleet Goes Into Hyperspace (03:05)
Contains Previously Unreleased Music From STAR WARS: EPISODE VI - RETURN OF THE JEDI
4. A Hive of Villainy (02:12)
Contains Previously Unreleased Music From STAR WARS: EPISODE IV - A NEW HOPE
5. Destruction of Alderaan (01:31)
Contains Previously Unreleased Music From STAR WARS: EPISODE IV - A NEW HOPE
6. Drawing the Battle Lines/Leia's Instructions (04:02)
Contains Previously Unreleased Music From STAR WARS: EPISODE V - THE EMPIRE STRIKES BACK
7. The Ewok Battle (02:48)
Contains Previously Unreleased Music From STAR WARS: EPISODE VI - RETURN OF THE JEDI
8. Attack Position (03:04)
Contains Previously Unreleased Music From STAR WARS: EPISODE V - THE EMPIRE STRIKES BACK
9. Crash Landing (03:35)
Contains Previously Unreleased Music From STAR WARS: EPISODE V - THE EMPIRE STRIKES BACK
10. Cantina Band (02:46)
From STAR WARS: EPISODE IV - A NEW HOPE
11. Lapti Nek (02:48)
From STAR WARS: EPISODE VI - RETURN OF THE JEDI
12. Cantina Band #2 (03:44)
Contains Previously Unreleased Music From STAR WARS: EPISODE IV - A NEW HOPE
13. Faking the Code (04:10)
Contains Previously Unreleased Music From STAR WARS: EPISODE VI - RETURN OF THE JEDI
14. Brother and Sister (03:08)
Contains Previously Unreleased Music From STAR WARS: EPISODE VI - RETURN OF THE JEDI
15. Standing By (01:14)
Contains Previously Unreleased Music From STAR WARS: EPISODE IV - A NEW HOPE
16. Leia is Wounded/Luke and Vader Duel (02:57)
Contains Previously Unreleased Music From STAR WARS: EPISODE VI - RETURN OF THE JEDI
17. Carbon Freeze/Luke Pursues the Captives/Departure of Boba Fett (11:08)
Contains Previously Unreleased Music From STAR WARS: EPISODE V - THE EMPIRE STRIKES BACK, Except "Departure of Boba Fett"
18. Losing a Hand (05:20)
Contains Previously Unreleased Music From STAR WARS: EPISODE V - THE EMPIRE STRIKES BACK
19. The Return of the Jedi (Alternate) (05:03)
Contains Previously Unreleased Music From STAR WARS: EPISODE VI - RETURN OF THE JEDI
20. Leia Breaks the news (Alternate)/Funeral Pyre for a Jedi (Film Version) (02:27)
Contains Previously Unreleased Music From STAR WARS: EPISODE VI - RETURN OF THE JEDI
21. Ewok Celebration (Film Version)/End Credits (Film Version) (06:22)
From STAR WARS: EPISODE VI - RETURN OF THE JEDI/Contains Previously Unreleased Music From STAR WARS: EPISODE V - THE EMPIRE STRIKES BACK
 
X Lossless Decoder version 20100301 (116.5)

XLD extraction logfile from 2010-03-01 14:35:58 +0000

John Williams: London Symphony Orchestra / Star Wars Trilogy [Disc 1]

Used drive : HL-DT-ST DVDRW GSA-S10N (revision BP08)

Use cdparanoia mode : YES (CDParanoia III 10.2 engine)Disable audio cache : OK for the drive with cache less than 2750KBMake use of C2 pointers : NORead offset correction : 667Max retry count : 100

TOC of the extracted CD Track | Start | Length | Start sector | End sector --------------------------------------------------------- 1 | 00:00:00 | 00:25:10 | 0 | 1884 2 | 00:25:10 | 05:25:72 | 1885 | 26331 3 | 05:51:07 | 06:43:50 | 26332 | 56606 4 | 12:34:57 | 02:54:08 | 56607 | 69664 5 | 15:28:65 | 04:10:52 | 69665 | 88466 6 | 19:39:42 | 04:07:28 | 88467 | 107019 7 | 23:46:70 | 02:57:22 | 107020 | 120316 8 | 26:44:17 | 02:51:00 | 120317 | 133141 9 | 29:35:17 | 04:48:63 | 133142 | 154804 10 | 34:24:05 | 04:05:35 | 154805 | 173214 11 | 38:29:40 | 04:51:00 | 173215 | 195039 12 | 43:20:40 | 04:36:00 | 195040 | 215739 13 | 47:56:40 | 03:54:37 | 215740 | 233326 14 | 51:51:02 | 04:26:33 | 233327 | 253309 15 | 56:17:35 | 12:15:05 | 253310 | 308439 16 | 68:32:40 | 05:33:05 | 308440 | 333419

All Tracks Album gain : -3.99 dB Peak : 1.000000

Track 01 Filename : /Users/Sander/Documents/01 John Williams: London Symphony Orchestra - Newman: Twentieth Century Fox Fanfare With CinemaScope Extension.flac

Pre-gap length : 00:02:00

Track gain : -2.51 dB Peak : 0.872772 CRC32 hash (test run) : 4019DD1F CRC32 hash : 4019DD1F CRC32 hash (skip zero) : C219B6B3 AccurateRip signature : 259E2A28 ->Accurately ripped! (confidence 74) Statistics Read error : 0 Skipped (treated as error) : 0 Edge jitter error (maybe fixed) : 0 Atom jitter error (maybe fixed) : 0 Drift error (maybe fixed) : 0 Dropped bytes error (maybe fixed) : 0 Duplicated bytes error (maybe fixed) : 0 Inconsistency in error sectors : 0

Track 02 Filename : /Users/Sander/Documents/02 John Williams: London Symphony Orchestra - Williams: Star Wars Theme.flac

Pre-gap length : 00:02:15

Track gain : -5.71 dB Peak : 0.965271 CRC32 hash (test run) : DCE5B77F CRC32 hash : DCE5B77F CRC32 hash (skip zero) : 677F7E41 AccurateRip signature : F2D1EFD3 ->Accurately ripped! (confidence 75) Statistics Read error : 0 Skipped (treated as error) : 0 Edge jitter error (maybe fixed) : 0 Atom jitter error (maybe fixed) : 0 Drift error (maybe fixed) : 0 Dropped bytes error (maybe fixed) : 0 Duplicated bytes error (maybe fixed) : 0 Inconsistency in error sectors : 0

Track 03 Filename : /Users/Sander/Documents/03 John Williams: London Symphony Orchestra - Williams: Imperial Attack.flac

Pre-gap length : 00:02:32

Track gain : -2.56 dB Peak : 0.917755 CRC32 hash (test run) : 9359BBA0 CRC32 hash : 9359BBA0 CRC32 hash (skip zero) : CBE9EA06 AccurateRip signature : 69E48F70 ->Accurately ripped! (confidence 76) Statistics Read error : 0 Skipped (treated as error) : 0 Edge jitter error (maybe fixed) : 0 Atom jitter error (maybe fixed) : 0 Drift error (maybe fixed) : 0 Dropped bytes error (maybe fixed) : 0 Duplicated bytes error (maybe fixed) : 0 Inconsistency in error sectors : 0

Track 04 Filename : /Users/Sander/Documents/04 John Williams: London Symphony Orchestra - Williams: The Desert, The Robot Auction.flac

Pre-gap length : 00:02:37

Track gain : 1.95 dB Peak : 0.602509 CRC32 hash (test run) : 57FE54E5 CRC32 hash : 57FE54E5 CRC32 hash (skip zero) : DFF3B395 AccurateRip signature : AEA21C88 ->Accurately ripped! (confidence 76) Statistics Read error : 0 Skipped (treated as error) : 0 Edge jitter error (maybe fixed) : 0 Atom jitter error (maybe fixed) : 0 Drift error (maybe fixed) : 0 Dropped bytes error (maybe fixed) : 0 Duplicated bytes error (maybe fixed) : 0 Inconsistency in error sectors : 0

Track 05 Filename : /Users/Sander/Documents/05 John Williams: London Symphony Orchestra - Williams: The Little People Work.flac

Pre-gap length : 00:02:70

Track gain : 1.42 dB Peak : 0.974091 CRC32 hash (test run) : A7559B4A CRC32 hash : A7559B4A CRC32 hash (skip zero) : 9653F9BA AccurateRip signature : BC460024 ->Accurately ripped! (confidence 76) Statistics Read error : 0 Skipped (treated as error) : 0 Edge jitter error (maybe fixed) : 0 Atom jitter error (maybe fixed) : 0 Drift error (maybe fixed) : 0 Dropped bytes error (maybe fixed) : 0 Duplicated bytes error (maybe fixed) : 0 Inconsistency in error sectors : 0

Track 06 Filename : /Users/Sander/Documents/06 John Williams: London Symphony Orchestra - Williams: The Princess Appears.flac

Pre-gap length : 00:02:30

Track gain : 2.97 dB Peak : 0.821930 CRC32 hash (test run) : 39EF716F CRC32 hash : 39EF716F CRC32 hash (skip zero) : 88F8EEC7 AccurateRip signature : 874308F8 ->Accurately ripped! (confidence 76) Statistics Read error : 0 Skipped (treated as error) : 0 Edge jitter error (maybe fixed) : 0 Atom jitter error (maybe fixed) : 0 Drift error (maybe fixed) : 0 Dropped bytes error (maybe fixed) : 0 Duplicated bytes error (maybe fixed) : 0 Inconsistency in error sectors : 0

Track 07 Filename : /Users/Sander/Documents/07 John Williams: London Symphony Orchestra - Williams: The Land Of The Sand People.flac

Pre-gap length : 00:00:23

Track gain : -3.42 dB Peak : 0.941010 CRC32 hash (test run) : BF73909B CRC32 hash : BF73909B CRC32 hash (skip zero) : B10DF648 AccurateRip signature : 6AD75EED ->Accurately ripped! (confidence 76) Statistics Read error : 0 Skipped (treated as error) : 0 Edge jitter error (maybe fixed) : 0 Atom jitter error (maybe fixed) : 0 Drift error (maybe fixed) : 0 Dropped bytes error (maybe fixed) : 0 Duplicated bytes error (maybe fixed) : 0 Inconsistency in error sectors : 0

Track 08 Filename : /Users/Sander/Documents/08 John Williams: London Symphony Orchestra - Williams: The Return Home.flac

Pre-gap length : 00:01:40

Track gain : -2.92 dB Peak : 0.966858 CRC32 hash (test run) : B631C492 CRC32 hash : B631C492 CRC32 hash (skip zero) : 7DD4C7E4 AccurateRip signature : CD8DA04C ->Accurately ripped! (confidence 76) Statistics Read error : 0 Skipped (treated as error) : 0 Edge jitter error (maybe fixed) : 0 Atom jitter error (maybe fixed) : 0 Drift error (maybe fixed) : 0 Dropped bytes error (maybe fixed) : 0 Duplicated bytes error (maybe fixed) : 0 Inconsistency in error sectors : 0

Track 09 Filename : /Users/Sander/Documents/09 John Williams: London Symphony Orchestra - Williams: Inner City.flac

Pre-gap length : 00:01:65

Track gain : -2.74 dB Peak : 0.972900 CRC32 hash (test run) : C765BAAD CRC32 hash : C765BAAD CRC32 hash (skip zero) : 14C8FD01 AccurateRip signature : BE04B400 ->Accurately ripped! (confidence 76) Statistics Read error : 0 Skipped (treated as error) : 0 Edge jitter error (maybe fixed) : 0 Atom jitter error (maybe fixed) : 0 Drift error (maybe fixed) : 0 Dropped bytes error (maybe fixed) : 0 Duplicated bytes error (maybe fixed) : 0 Inconsistency in error sectors : 0

Track 10 Filename : /Users/Sander/Documents/10 John Williams: London Symphony Orchestra - Williams: Mouse Robot, Blasting Off.flac

Pre-gap length : 00:03:65

Track gain : -4.24 dB Peak : 1.000000 CRC32 hash (test run) : F29E6CDC CRC32 hash : F29E6CDC CRC32 hash (skip zero) : 224D7113 AccurateRip signature : F13F03A5 ->Accurately ripped! (confidence 76) Statistics Read error : 0 Skipped (treated as error) : 0 Edge jitter error (maybe fixed) : 0 Atom jitter error (maybe fixed) : 0 Drift error (maybe fixed) : 0 Dropped bytes error (maybe fixed) : 0 Duplicated bytes error (maybe fixed) : 0 Inconsistency in error sectors : 0

Track 11 Filename : /Users/Sander/Documents/11 John Williams: London Symphony Orchestra - Williams: Rescue Of The Princess.flac

Pre-gap length : 00:01:53

Track gain : -4.07 dB Peak : 0.972900 CRC32 hash (test run) : FF32AEA9 CRC32 hash : FF32AEA9 CRC32 hash (skip zero) : 50CBA909 AccurateRip signature : 31A59620 ->Accurately ripped! (confidence 76) Statistics Read error : 0 Skipped (treated as error) : 0 Edge jitter error (maybe fixed) : 0 Atom jitter error (maybe fixed) : 0 Drift error (maybe fixed) : 0 Dropped bytes error (maybe fixed) : 0 Duplicated bytes error (maybe fixed) : 0 Inconsistency in error sectors : 0

Track 12 Filename : /Users/Sander/Documents/12 John Williams: London Symphony Orchestra - Williams: The Walls Converge.flac

Pre-gap length : 00:01:60

Track gain : -1.77 dB Peak : 0.931152 CRC32 hash (test run) : 73C876FF CRC32 hash : 73C876FF CRC32 hash (skip zero) : 2E439D51 AccurateRip signature : B055DA2E ->Accurately ripped! (confidence 76) Statistics Read error : 0 Skipped (treated as error) : 0 Edge jitter error (maybe fixed) : 0 Atom jitter error (maybe fixed) : 0 Drift error (maybe fixed) : 0 Dropped bytes error (maybe fixed) : 0 Duplicated bytes error (maybe fixed) : 0 Inconsistency in error sectors : 0

Track 13 Filename : /Users/Sander/Documents/13 John Williams: London Symphony Orchestra - Williams: Ben's Death, TIE Fighter Attack.flac

Pre-gap length : 00:01:65

Track gain : -4.85 dB Peak : 0.972900 CRC32 hash (test run) : 10535B13 CRC32 hash : 10535B13 CRC32 hash (skip zero) : 31EDAC10 AccurateRip signature : F25536EE ->Accurately ripped! (confidence 76) Statistics Read error : 0 Skipped (treated as error) : 0 Edge jitter error (maybe fixed) : 0 Atom jitter error (maybe fixed) : 0 Drift error (maybe fixed) : 0 Dropped bytes error (maybe fixed) : 0 Duplicated bytes error (maybe fixed) : 0 Inconsistency in error sectors : 0

Track 14 Filename : /Users/Sander/Documents/14 John Williams: London Symphony Orchestra - Williams: Princess Leia's Theme.flac

Pre-gap length : 00:02:15

Track gain : -1.44 dB Peak : 0.885223 CRC32 hash (test run) : 3EE8C216 CRC32 hash : 3EE8C216 CRC32 hash (skip zero) : DEC38D8E AccurateRip signature : BB85EB50 ->Accurately ripped! (confidence 75) Statistics Read error : 0 Skipped (treated as error) : 0 Edge jitter error (maybe fixed) : 0 Atom jitter error (maybe fixed) : 0 Drift error (maybe fixed) : 0 Dropped bytes error (maybe fixed) : 0 Duplicated bytes error (maybe fixed) : 0 Inconsistency in error sectors : 0

Track 15 Filename : /Users/Sander/Documents/15 John Williams: London Symphony Orchestra - Williams: The Last Battle.flac

Pre-gap length : 00:02:60

Track gain : -3.72 dB Peak : 0.972900 CRC32 hash (test run) : 7C3ABEB0 CRC32 hash : 7C3ABEB0 CRC32 hash (skip zero) : E532D952 AccurateRip signature : FC9BFCD1 ->Accurately ripped! (confidence 74) Statistics Read error : 0 Skipped (treated as error) : 0 Edge jitter error (maybe fixed) : 0 Atom jitter error (maybe fixed) : 0 Drift error (maybe fixed) : 0 Dropped bytes error (maybe fixed) : 0 Duplicated bytes error (maybe fixed) : 0 Inconsistency in error sectors : 0

Track 16 Filename : /Users/Sander/Documents/16 John Williams: London Symphony Orchestra - Williams: The Throne Room, End Titles.flac

Pre-gap length : 00:01:15

Track gain : -5.54 dB Peak : 0.972900 CRC32 hash (test run) : 0F054423 CRC32 hash : 0F054423 CRC32 hash (skip zero) : 985EB486 AccurateRip signature : FC9D074E ->Accurately ripped! (confidence 57) Statistics Read error : 0 Skipped (treated as error) : 0 Edge jitter error (maybe fixed) : 0 Atom jitter error (maybe fixed) : 0 Drift error (maybe fixed) : 0 Dropped bytes error (maybe fixed) : 0 Duplicated bytes error (maybe fixed) : 0 Inconsistency in error sectors : 0

No errors occurred

End of status report
 
X Lossless Decoder version 20100301 (116.5)

XLD extraction logfile from 2010-03-01 15:10:43 +0000

John Williams: London Symphony Orchestra / Star Wars Trilogy [Disc 2]

Used drive : HL-DT-ST DVDRW GSA-S10N (revision BP08)

Use cdparanoia mode : YES (CDParanoia III 10.2 engine)Disable audio cache : OK for the drive with cache less than 2750KBMake use of C2 pointers : NORead offset correction : 667Max retry count : 100

TOC of the extracted CD Track | Start | Length | Start sector | End sector --------------------------------------------------------- 1 | 00:00:00 | 00:23:32 | 0 | 1756 2 | 00:23:32 | 07:59:50 | 1757 | 37731 3 | 08:23:07 | 03:35:50 | 37732 | 53906 4 | 11:58:57 | 01:47:58 | 53907 | 61989 5 | 13:46:40 | 03:01:42 | 61990 | 75606 6 | 16:48:07 | 03:47:10 | 75607 | 92641 7 | 20:35:17 | 04:13:65 | 92642 | 111681 8 | 24:49:07 | 03:00:73 | 111682 | 125254 9 | 27:50:05 | 04:15:42 | 125255 | 144421 10 | 32:05:47 | 03:27:33 | 144422 | 159979 11 | 35:33:05 | 03:27:37 | 159980 | 175541 12 | 39:00:42 | 03:15:53 | 175542 | 190219 13 | 42:16:20 | 03:34:10 | 190220 | 206279 14 | 45:50:30 | 04:03:40 | 206280 | 224544 15 | 49:53:70 | 06:51:42 | 224545 | 255411 16 | 56:45:37 | 03:53:03 | 255412 | 272889 17 | 60:38:40 | 04:15:72 | 272890 | 292086 18 | 64:54:37 | 04:04:50 | 292087 | 310436 19 | 68:59:12 | 06:18:28 | 310437 | 338814

All Tracks Album gain : -1.36 dB Peak : 1.000000

Track 01 Filename : /Users/Sander/Documents/01 John Williams: London Symphony Orchestra - Newman: Twentieth Century Fox Fanfare With CinemaScope Extension.flac

Pre-gap length : 00:02:00

Track gain : -4.13 dB Peak : 0.959045 CRC32 hash (test run) : 3FDDF95E CRC32 hash : 3FDDF95E CRC32 hash (skip zero) : 93CD6294 AccurateRip signature : 380ED07E ->Accurately ripped! (confidence 79) Statistics Read error : 0 Skipped (treated as error) : 0 Edge jitter error (maybe fixed) : 0 Atom jitter error (maybe fixed) : 0 Drift error (maybe fixed) : 0 Dropped bytes error (maybe fixed) : 0 Duplicated bytes error (maybe fixed) : 0 Inconsistency in error sectors : 0

Track 02 Filename : /Users/Sander/Documents/02 John Williams: London Symphony Orchestra - Williams: Star Wars Theme;The Imperial Probe (Extended Version).flac

Pre-gap length : 00:00:20

Track gain : -1.78 dB Peak : 0.972900 CRC32 hash (test run) : AA9A359A CRC32 hash : AA9A359A CRC32 hash (skip zero) : B61AAAE6 AccurateRip signature : F92B5B61 ->Accurately ripped! (confidence 77) Statistics Read error : 0 Skipped (treated as error) : 0 Edge jitter error (maybe fixed) : 0 Atom jitter error (maybe fixed) : 0 Drift error (maybe fixed) : 0 Dropped bytes error (maybe fixed) : 0 Duplicated bytes error (maybe fixed) : 0 Inconsistency in error sectors : 0

Track 03 Filename : /Users/Sander/Documents/03 John Williams: London Symphony Orchestra - Williams: Luke's Escape.flac

Pre-gap length : 00:01:37

Track gain : 0.22 dB Peak : 0.934967 CRC32 hash (test run) : C128A7F1 CRC32 hash : C128A7F1 CRC32 hash (skip zero) : 038EAEDC AccurateRip signature : A9B2FD88 ->Accurately ripped! (confidence 79) Statistics Read error : 0 Skipped (treated as error) : 0 Edge jitter error (maybe fixed) : 0 Atom jitter error (maybe fixed) : 0 Drift error (maybe fixed) : 0 Dropped bytes error (maybe fixed) : 0 Duplicated bytes error (maybe fixed) : 0 Inconsistency in error sectors : 0

Track 04 Filename : /Users/Sander/Documents/04 John Williams: London Symphony Orchestra - Williams: Luke's Rescue.flac

Pre-gap length : 00:01:22

Track gain : -0.20 dB Peak : 0.796173 CRC32 hash (test run) : BCE1DE58 CRC32 hash : BCE1DE58 CRC32 hash (skip zero) : B2C5ED8B AccurateRip signature : 546B7BFC ->Accurately ripped! (confidence 79) Statistics Read error : 0 Skipped (treated as error) : 0 Edge jitter error (maybe fixed) : 0 Atom jitter error (maybe fixed) : 0 Drift error (maybe fixed) : 0 Dropped bytes error (maybe fixed) : 0 Duplicated bytes error (maybe fixed) : 0 Inconsistency in error sectors : 0

Track 05 Filename : /Users/Sander/Documents/05 John Williams: London Symphony Orchestra - Williams: The Imperial March (Darth Vader's Theme).flac

Pre-gap length : 00:01:20

Track gain : -2.05 dB Peak : 0.575806 CRC32 hash (test run) : 814683CC CRC32 hash : 814683CC CRC32 hash (skip zero) : 6C30F75C AccurateRip signature : C7C2BBAE ->Accurately ripped! (confidence 82) Statistics Read error : 0 Skipped (treated as error) : 0 Edge jitter error (maybe fixed) : 0 Atom jitter error (maybe fixed) : 0 Drift error (maybe fixed) : 0 Dropped bytes error (maybe fixed) : 0 Duplicated bytes error (maybe fixed) : 0 Inconsistency in error sectors : 0

Track 06 Filename : /Users/Sander/Documents/06 John Williams: London Symphony Orchestra - Williams: The Battle In The Snow.flac

Pre-gap length : 00:02:07

Track gain : -2.21 dB Peak : 0.582336 CRC32 hash (test run) : F46ADF19 CRC32 hash : F46ADF19 CRC32 hash (skip zero) : BC159E25 AccurateRip signature : D2E3A8F2 ->Accurately ripped! (confidence 79) Statistics Read error : 0 Skipped (treated as error) : 0 Edge jitter error (maybe fixed) : 0 Atom jitter error (maybe fixed) : 0 Drift error (maybe fixed) : 0 Dropped bytes error (maybe fixed) : 0 Duplicated bytes error (maybe fixed) : 0 Inconsistency in error sectors : 0

Track 07 Filename : /Users/Sander/Documents/07 John Williams: London Symphony Orchestra - Williams: Luke's First Crash.flac

Pre-gap length : 00:01:45

Track gain : -3.28 dB Peak : 0.989136 CRC32 hash (test run) : 84F4B791 CRC32 hash : 84F4B791 CRC32 hash (skip zero) : 7D022F8C AccurateRip signature : C6F13098 ->Accurately ripped! (confidence 78) Statistics Read error : 0 Skipped (treated as error) : 0 Edge jitter error (maybe fixed) : 0 Atom jitter error (maybe fixed) : 0 Drift error (maybe fixed) : 0 Dropped bytes error (maybe fixed) : 0 Duplicated bytes error (maybe fixed) : 0 Inconsistency in error sectors : 0

Track 08 Filename : /Users/Sander/Documents/08 John Williams: London Symphony Orchestra - Williams: The Rebels Escape Again.flac

Pre-gap length : 00:01:15

Track gain : 1.54 dB Peak : 0.522461 CRC32 hash (test run) : 621AB69D CRC32 hash : 621AB69D CRC32 hash (skip zero) : 6461956F AccurateRip signature : 22377747 ->Accurately ripped! (confidence 79) Statistics Read error : 0 Skipped (treated as error) : 0 Edge jitter error (maybe fixed) : 0 Atom jitter error (maybe fixed) : 0 Drift error (maybe fixed) : 0 Dropped bytes error (maybe fixed) : 0 Duplicated bytes error (maybe fixed) : 0 Inconsistency in error sectors : 0

Track 09 Filename : /Users/Sander/Documents/09 John Williams: London Symphony Orchestra - Williams: The Asteroid Field.flac

Pre-gap length : 00:01:23

Track gain : -2.08 dB Peak : 0.594574 CRC32 hash (test run) : BA73EACD CRC32 hash : BA73EACD CRC32 hash (skip zero) : 288EADF1 AccurateRip signature : 871E1684 ->Accurately ripped! (confidence 80) Statistics Read error : 0 Skipped (treated as error) : 0 Edge jitter error (maybe fixed) : 0 Atom jitter error (maybe fixed) : 0 Drift error (maybe fixed) : 0 Dropped bytes error (maybe fixed) : 0 Duplicated bytes error (maybe fixed) : 0 Inconsistency in error sectors : 0

Track 10 Filename : /Users/Sander/Documents/10 John Williams: London Symphony Orchestra - Williams: Yoda's Theme.flac

Pre-gap length : 00:00:57

Track gain : 4.48 dB Peak : 0.445374 CRC32 hash (test run) : 468CC339 CRC32 hash : 468CC339 CRC32 hash (skip zero) : 5CEA14EE AccurateRip signature : 8B2D28B1 ->Accurately ripped! (confidence 79) Statistics Read error : 0 Skipped (treated as error) : 0 Edge jitter error (maybe fixed) : 0 Atom jitter error (maybe fixed) : 0 Drift error (maybe fixed) : 0 Dropped bytes error (maybe fixed) : 0 Duplicated bytes error (maybe fixed) : 0 Inconsistency in error sectors : 0

Track 11 Filename : /Users/Sander/Documents/11 John Williams: London Symphony Orchestra - Williams: Han Solo And The Princess.flac

Pre-gap length : 00:00:70

Track gain : 1.27 dB Peak : 0.832642 CRC32 hash (test run) : A1187B66 CRC32 hash : A1187B66 CRC32 hash (skip zero) : 7101BB1F AccurateRip signature : 42A6B2A0 ->Accurately ripped! (confidence 79) Statistics Read error : 0 Skipped (treated as error) : 0 Edge jitter error (maybe fixed) : 0 Atom jitter error (maybe fixed) : 0 Drift error (maybe fixed) : 0 Dropped bytes error (maybe fixed) : 0 Duplicated bytes error (maybe fixed) : 0 Inconsistency in error sectors : 0

Track 12 Filename : /Users/Sander/Documents/12 John Williams: London Symphony Orchestra - Williams: The Training Of A Jedi Knight.flac

Pre-gap length : 00:01:15

Track gain : 9.38 dB Peak : 0.373077 CRC32 hash (test run) : 7D3EB052 CRC32 hash : 7D3EB052 CRC32 hash (skip zero) : 78A4C4DF AccurateRip signature : A87EE2E7 ->Accurately ripped! (confidence 78) Statistics Read error : 0 Skipped (treated as error) : 0 Edge jitter error (maybe fixed) : 0 Atom jitter error (maybe fixed) : 0 Drift error (maybe fixed) : 0 Dropped bytes error (maybe fixed) : 0 Duplicated bytes error (maybe fixed) : 0 Inconsistency in error sectors : 0

Track 13 Filename : /Users/Sander/Documents/13 John Williams: London Symphony Orchestra - Williams: The Magic Tree.flac

Pre-gap length : 00:02:10

Track gain : 3.71 dB Peak : 0.657715 CRC32 hash (test run) : D98CF6B4 CRC32 hash : D98CF6B4 CRC32 hash (skip zero) : B610927B AccurateRip signature : 9D12B386 ->Accurately ripped! (confidence 79) Statistics Read error : 0 Skipped (treated as error) : 0 Edge jitter error (maybe fixed) : 0 Atom jitter error (maybe fixed) : 0 Drift error (maybe fixed) : 0 Dropped bytes error (maybe fixed) : 0 Duplicated bytes error (maybe fixed) : 0 Inconsistency in error sectors : 0

Track 14 Filename : /Users/Sander/Documents/14 John Williams: London Symphony Orchestra - Williams: Yoda And The Force.flac

Pre-gap length : 00:01:23

Track gain : 1.86 dB Peak : 0.492584 CRC32 hash (test run) : 5F9D0504 CRC32 hash : 5F9D0504 CRC32 hash (skip zero) : B72AA156 AccurateRip signature : 21F3E0F1 ->Accurately ripped! (confidence 80) Statistics Read error : 0 Skipped (treated as error) : 0 Edge jitter error (maybe fixed) : 0 Atom jitter error (maybe fixed) : 0 Drift error (maybe fixed) : 0 Dropped bytes error (maybe fixed) : 0 Duplicated bytes error (maybe fixed) : 0 Inconsistency in error sectors : 0

Track 15 Filename : /Users/Sander/Documents/15 John Williams: London Symphony Orchestra - Williams: City In The Clouds.flac

Pre-gap length : 00:01:28

Track gain : 1.45 dB Peak : 0.756409 CRC32 hash (test run) : A0125B49 CRC32 hash : A0125B49 CRC32 hash (skip zero) : D59A26AA AccurateRip signature : 1A90525C ->Accurately ripped! (confidence 80) Statistics Read error : 0 Skipped (treated as error) : 0 Edge jitter error (maybe fixed) : 0 Atom jitter error (maybe fixed) : 0 Drift error (maybe fixed) : 0 Dropped bytes error (maybe fixed) : 0 Duplicated bytes error (maybe fixed) : 0 Inconsistency in error sectors : 0

Track 16 Filename : /Users/Sander/Documents/16 John Williams: London Symphony Orchestra - Williams: Lando's Palace.flac

Pre-gap length : 00:01:02

Track gain : 6.60 dB Peak : 0.665619 CRC32 hash (test run) : E64D11C9 CRC32 hash : E64D11C9 CRC32 hash (skip zero) : 9ED3F18D AccurateRip signature : 1509BD92 ->Accurately ripped! (confidence 80) Statistics Read error : 0 Skipped (treated as error) : 0 Edge jitter error (maybe fixed) : 0 Atom jitter error (maybe fixed) : 0 Drift error (maybe fixed) : 0 Dropped bytes error (maybe fixed) : 0 Duplicated bytes error (maybe fixed) : 0 Inconsistency in error sectors : 0

Track 17 Filename : /Users/Sander/Documents/17 John Williams: London Symphony Orchestra - Williams: The Duel.flac

Pre-gap length : 00:01:05

Track gain : -0.08 dB Peak : 0.734039 CRC32 hash (test run) : 36C29FBB CRC32 hash : 36C29FBB CRC32 hash (skip zero) : C30DD76B AccurateRip signature : 423791F8 ->Accurately ripped! (confidence 79) Statistics Read error : 0 Skipped (treated as error) : 0 Edge jitter error (maybe fixed) : 0 Atom jitter error (maybe fixed) : 0 Drift error (maybe fixed) : 0 Dropped bytes error (maybe fixed) : 0 Duplicated bytes error (maybe fixed) : 0 Inconsistency in error sectors : 0

Track 18 Filename : /Users/Sander/Documents/18 John Williams: London Symphony Orchestra - Williams: Hyperspace.flac

Pre-gap length : 00:01:27

Track gain : -1.23 dB Peak : 1.000000 CRC32 hash (test run) : D02D1ED6 CRC32 hash : D02D1ED6 CRC32 hash (skip zero) : 0E222B7C AccurateRip signature : B6BC9C4A ->Accurately ripped! (confidence 79) Statistics Read error : 0 Skipped (treated as error) : 0 Edge jitter error (maybe fixed) : 0 Atom jitter error (maybe fixed) : 0 Drift error (maybe fixed) : 0 Dropped bytes error (maybe fixed) : 0 Duplicated bytes error (maybe fixed) : 0 Inconsistency in error sectors : 0

Track 19 Filename : /Users/Sander/Documents/19 John Williams: London Symphony Orchestra - Williams: Finale; End Credits.flac

Pre-gap length : 00:00:70

Track gain : -3.95 dB Peak : 1.000000 CRC32 hash (test run) : A8B9BD98 CRC32 hash : A8B9BD98 CRC32 hash (skip zero) : 4FA58EC1 AccurateRip signature : 23E398B7 ->Accurately ripped! (confidence 81) Statistics Read error : 0 Skipped (treated as error) : 0 Edge jitter error (maybe fixed) : 0 Atom jitter error (maybe fixed) : 0 Drift error (maybe fixed) : 0 Dropped bytes error (maybe fixed) : 0 Duplicated bytes error (maybe fixed) : 0 Inconsistency in error sectors : 0

No errors occurred

End of status report
 
X Lossless Decoder version 20100301 (116.5)

XLD extraction logfile from 2010-03-01 15:47:05 +0000

John Williams / Star Wars Trilogy [Disc 3]

Used drive : HL-DT-ST DVDRW GSA-S10N (revision BP08)

Use cdparanoia mode : YES (CDParanoia III 10.2 engine)Disable audio cache : OK for the drive with cache less than 2750KBMake use of C2 pointers : NORead offset correction : 667Max retry count : 100

TOC of the extracted CD Track | Start | Length | Start sector | End sector --------------------------------------------------------- 1 | 00:00:00 | 00:23:02 | 0 | 1726 2 | 00:23:02 | 05:22:30 | 1727 | 25906 3 | 05:45:32 | 04:09:55 | 25907 | 44636 4 | 09:55:12 | 03:41:73 | 44637 | 61284 5 | 13:37:10 | 05:02:57 | 61285 | 83991 6 | 18:39:67 | 02:07:68 | 83992 | 93584 7 | 20:47:60 | 06:06:00 | 93585 | 121034 8 | 26:53:60 | 03:27:35 | 121035 | 136594 9 | 30:21:20 | 04:47:15 | 136595 | 158134 10 | 35:08:35 | 03:29:10 | 158135 | 173819 11 | 38:37:45 | 02:39:42 | 173820 | 185786 12 | 41:17:12 | 07:24:15 | 185787 | 219101 13 | 48:41:27 | 04:04:15 | 219102 | 237416 14 | 52:45:42 | 03:40:58 | 237417 | 253974 15 | 56:26:25 | 02:44:35 | 253975 | 266309 16 | 59:10:60 | 02:33:62 | 266310 | 277846 17 | 61:44:47 | 01:39:40 | 277847 | 285311 18 | 63:24:12 | 02:22:43 | 285312 | 296004 19 | 65:46:55 | 07:58:52 | 296005 | 331906

List of alternate offset correction values # | Absolute | Relative | Confidence ------------------------------------------ 1 | 3 | -664 | 3

All Tracks Album gain : -2.66 dB Peak : 0.978943

Track 01 Filename : /Users/Sander/Documents/01 John Williams - Twentieth Century Fox Fanfare With CinemaScope Extension.flac

Pre-gap length : 00:02:00

Track gain : -2.66 dB Peak : 0.861664 CRC32 hash (test run) : C9EC848B CRC32 hash : C9EC848B CRC32 hash (skip zero) : 08ED2B50 AccurateRip signature : 39112698 ->Accurately ripped! (confidence 59) Statistics Read error : 0 Skipped (treated as error) : 0 Edge jitter error (maybe fixed) : 0 Atom jitter error (maybe fixed) : 0 Drift error (maybe fixed) : 0 Dropped bytes error (maybe fixed) : 0 Duplicated bytes error (maybe fixed) : 0 Inconsistency in error sectors : 0

Track 02 Filename : /Users/Sander/Documents/02 John Williams - Main Title/Approaching The Death Star.flac

Track gain : -3.22 dB Peak : 0.910889 CRC32 hash (test run) : 94D6FFE3 CRC32 hash : 94D6FFE3 CRC32 hash (skip zero) : FE72E758 AccurateRip signature : 212A4801 ->Accurately ripped! (confidence 60) Statistics Read error : 0 Skipped (treated as error) : 0 Edge jitter error (maybe fixed) : 0 Atom jitter error (maybe fixed) : 0 Drift error (maybe fixed) : 0 Dropped bytes error (maybe fixed) : 0 Duplicated bytes error (maybe fixed) : 0 Inconsistency in error sectors : 0

Track 03 Filename : /Users/Sander/Documents/03 John Williams - Han Solo Returns (At The Court Of Jabba The Hutt).flac

Pre-gap length : 00:04:10

Track gain : -2.11 dB Peak : 0.972198 CRC32 hash (test run) : 09FB831A CRC32 hash : 09FB831A CRC32 hash (skip zero) : 566148A6 AccurateRip signature : F22DE085 ->Accurately ripped! (confidence 60) Statistics Read error : 0 Skipped (treated as error) : 0 Edge jitter error (maybe fixed) : 0 Atom jitter error (maybe fixed) : 0 Drift error (maybe fixed) : 0 Dropped bytes error (maybe fixed) : 0 Duplicated bytes error (maybe fixed) : 0 Inconsistency in error sectors : 0

Track 04 Filename : /Users/Sander/Documents/04 John Williams - Fight In The Dungeon.flac

Pre-gap length : 00:02:55

Track gain : -5.28 dB Peak : 0.978943 CRC32 hash (test run) : 030DB605 CRC32 hash : 030DB605 CRC32 hash (skip zero) : A05CA6B7 AccurateRip signature : A943FF0B ->Accurately ripped! (confidence 59) Statistics Read error : 0 Skipped (treated as error) : 0 Edge jitter error (maybe fixed) : 0 Atom jitter error (maybe fixed) : 0 Drift error (maybe fixed) : 0 Dropped bytes error (maybe fixed) : 0 Duplicated bytes error (maybe fixed) : 0 Inconsistency in error sectors : 0

Track 05 Filename : /Users/Sander/Documents/05 John Williams - The Return Of The Jedi.flac

Pre-gap length : 00:02:55

Track gain : -3.32 dB Peak : 0.950714 CRC32 hash (test run) : 8BF4A4F8 CRC32 hash : 8BF4A4F8 CRC32 hash (skip zero) : 3E09967C AccurateRip signature : 1FF6B312 ->Accurately ripped! (confidence 59) Statistics Read error : 0 Skipped (treated as error) : 0 Edge jitter error (maybe fixed) : 0 Atom jitter error (maybe fixed) : 0 Drift error (maybe fixed) : 0 Dropped bytes error (maybe fixed) : 0 Duplicated bytes error (maybe fixed) : 0 Inconsistency in error sectors : 0

Track 06 Filename : /Users/Sander/Documents/06 John Williams - The Emperor Arrives.flac

Pre-gap length : 00:02:55

Track gain : -0.68 dB Peak : 0.782837 CRC32 hash (test run) : D61B3936 CRC32 hash : D61B3936 CRC32 hash (skip zero) : 19715273 AccurateRip signature : 8EAFE539 ->Accurately ripped! (confidence 60) Statistics Read error : 0 Skipped (treated as error) : 0 Edge jitter error (maybe fixed) : 0 Atom jitter error (maybe fixed) : 0 Drift error (maybe fixed) : 0 Dropped bytes error (maybe fixed) : 0 Duplicated bytes error (maybe fixed) : 0 Inconsistency in error sectors : 0

Track 07 Filename : /Users/Sander/Documents/07 John Williams - The Death Of Yoda.flac

Pre-gap length : 00:02:58

Track gain : 8.84 dB Peak : 0.414642 CRC32 hash (test run) : 25B45BD1 CRC32 hash : 25B45BD1 CRC32 hash (skip zero) : C8B55EDB AccurateRip signature : AB8A1B5D ->Accurately ripped! (confidence 60) Statistics Read error : 0 Skipped (treated as error) : 0 Edge jitter error (maybe fixed) : 0 Atom jitter error (maybe fixed) : 0 Drift error (maybe fixed) : 0 Dropped bytes error (maybe fixed) : 0 Duplicated bytes error (maybe fixed) : 0 Inconsistency in error sectors : 0

Track 08 Filename : /Users/Sander/Documents/08 John Williams - Parade Of The Ewoks.flac

Pre-gap length : 00:02:48

Track gain : -1.96 dB Peak : 0.875183 CRC32 hash (test run) : 63622954 CRC32 hash : 63622954 CRC32 hash (skip zero) : 0CD678E0 AccurateRip signature : 31423BBD ->Accurately ripped! (confidence 60) Statistics Read error : 0 Skipped (treated as error) : 0 Edge jitter error (maybe fixed) : 0 Atom jitter error (maybe fixed) : 0 Drift error (maybe fixed) : 0 Dropped bytes error (maybe fixed) : 0 Duplicated bytes error (maybe fixed) : 0 Inconsistency in error sectors : 0

Track 09 Filename : /Users/Sander/Documents/09 John Williams - Luke And Leia.flac

Pre-gap length : 00:02:58

Track gain : 1.48 dB Peak : 0.765411 CRC32 hash (test run) : F59A05F9 CRC32 hash : F59A05F9 CRC32 hash (skip zero) : 5869D6BD AccurateRip signature : 319120BC ->Accurately ripped! (confidence 59) Statistics Read error : 0 Skipped (treated as error) : 0 Edge jitter error (maybe fixed) : 0 Atom jitter error (maybe fixed) : 0 Drift error (maybe fixed) : 0 Dropped bytes error (maybe fixed) : 0 Duplicated bytes error (maybe fixed) : 0 Inconsistency in error sectors : 0

Track 10 Filename : /Users/Sander/Documents/10 John Williams - The Emperor Confronts Luke.flac

Pre-gap length : 00:03:10

Track gain : 2.70 dB Peak : 0.647858 CRC32 hash (test run) : F453C66E CRC32 hash : F453C66E CRC32 hash (skip zero) : 243FC7E1 AccurateRip signature : 8EA07038 ->Accurately ripped! (confidence 59) Statistics Read error : 0 Skipped (treated as error) : 0 Edge jitter error (maybe fixed) : 0 Atom jitter error (maybe fixed) : 0 Drift error (maybe fixed) : 0 Dropped bytes error (maybe fixed) : 0 Duplicated bytes error (maybe fixed) : 0 Inconsistency in error sectors : 0

Track 11 Filename : /Users/Sander/Documents/11 John Williams - Into The Trap.flac

Pre-gap length : 00:02:48

Track gain : -5.02 dB Peak : 0.956665 CRC32 hash (test run) : 37E3C715 CRC32 hash : 37E3C715 CRC32 hash (skip zero) : 0010F3DA AccurateRip signature : D2DB357E ->Accurately ripped! (confidence 60) Statistics Read error : 0 Skipped (treated as error) : 0 Edge jitter error (maybe fixed) : 0 Atom jitter error (maybe fixed) : 0 Drift error (maybe fixed) : 0 Dropped bytes error (maybe fixed) : 0 Duplicated bytes error (maybe fixed) : 0 Inconsistency in error sectors : 0

Track 12 Filename : /Users/Sander/Documents/12 John Williams - First Ewok Battle/Fight With The Fighters.flac

Pre-gap length : 00:03:00

Track gain : -3.68 dB Peak : 0.972870 CRC32 hash (test run) : 88002B60 CRC32 hash : 88002B60 CRC32 hash (skip zero) : EE98BD87 AccurateRip signature : 4F58E174 ->Accurately ripped! (confidence 60) Statistics Read error : 0 Skipped (treated as error) : 0 Edge jitter error (maybe fixed) : 0 Atom jitter error (maybe fixed) : 0 Drift error (maybe fixed) : 0 Dropped bytes error (maybe fixed) : 0 Duplicated bytes error (maybe fixed) : 0 Inconsistency in error sectors : 0

Track 13 Filename : /Users/Sander/Documents/13 John Williams - The Forest Battle.flac

Pre-gap length : 00:05:47

Track gain : -2.39 dB Peak : 0.946838 CRC32 hash (test run) : A03EE0D3 CRC32 hash : A03EE0D3 CRC32 hash (skip zero) : 60509757 AccurateRip signature : B21F5DF7 ->Accurately ripped! (confidence 60) Statistics Read error : 0 Skipped (treated as error) : 0 Edge jitter error (maybe fixed) : 0 Atom jitter error (maybe fixed) : 0 Drift error (maybe fixed) : 0 Dropped bytes error (maybe fixed) : 0 Duplicated bytes error (maybe fixed) : 0 Inconsistency in error sectors : 0

Track 14 Filename : /Users/Sander/Documents/14 John Williams - Final Duel/Into The Death Star.flac

Pre-gap length : 00:02:62

Track gain : -3.07 dB Peak : 0.952118 CRC32 hash (test run) : 0C3943CB CRC32 hash : 0C3943CB CRC32 hash (skip zero) : 7EC5D230 AccurateRip signature : D8F4E451 ->Accurately ripped! (confidence 59) Statistics Read error : 0 Skipped (treated as error) : 0 Edge jitter error (maybe fixed) : 0 Atom jitter error (maybe fixed) : 0 Drift error (maybe fixed) : 0 Dropped bytes error (maybe fixed) : 0 Duplicated bytes error (maybe fixed) : 0 Inconsistency in error sectors : 0

Track 15 Filename : /Users/Sander/Documents/15 John Williams - The Emperor's Death.flac

Pre-gap length : 00:02:73

Track gain : -3.39 dB Peak : 0.896454 CRC32 hash (test run) : 75549D12 CRC32 hash : 75549D12 CRC32 hash (skip zero) : 674857B4 AccurateRip signature : 99346B52 ->Accurately ripped! (confidence 60) Statistics Read error : 0 Skipped (treated as error) : 0 Edge jitter error (maybe fixed) : 0 Atom jitter error (maybe fixed) : 0 Drift error (maybe fixed) : 0 Dropped bytes error (maybe fixed) : 0 Duplicated bytes error (maybe fixed) : 0 Inconsistency in error sectors : 0

Track 16 Filename : /Users/Sander/Documents/16 John Williams - Darth Vader's Death.flac

Pre-gap length : 00:02:58

Track gain : 4.87 dB Peak : 0.599976 CRC32 hash (test run) : CB23FEA7 CRC32 hash : CB23FEA7 CRC32 hash (skip zero) : A3D82898 AccurateRip signature : 1860A1FF ->Accurately ripped! (confidence 60) Statistics Read error : 0 Skipped (treated as error) : 0 Edge jitter error (maybe fixed) : 0 Atom jitter error (maybe fixed) : 0 Drift error (maybe fixed) : 0 Dropped bytes error (maybe fixed) : 0 Duplicated bytes error (maybe fixed) : 0 Inconsistency in error sectors : 0

Track 17 Filename : /Users/Sander/Documents/17 John Williams - Through The Flames.flac

Pre-gap length : 00:02:45

Track gain : -2.04 dB Peak : 0.750732 CRC32 hash (test run) : B625FC19 CRC32 hash : B625FC19 CRC32 hash (skip zero) : 3427F129 AccurateRip signature : 8B525DCE ->Accurately ripped! (confidence 60) Statistics Read error : 0 Skipped (treated as error) : 0 Edge jitter error (maybe fixed) : 0 Atom jitter error (maybe fixed) : 0 Drift error (maybe fixed) : 0 Dropped bytes error (maybe fixed) : 0 Duplicated bytes error (maybe fixed) : 0 Inconsistency in error sectors : 0

Track 18 Filename : /Users/Sander/Documents/18 John Williams - Leia Breaks The News/Funeral Pyre For A Jedi.flac

Pre-gap length : 00:03:02

Track gain : 1.05 dB Peak : 0.719177 CRC32 hash (test run) : DC867401 CRC32 hash : DC867401 CRC32 hash (skip zero) : 0851F4F6 AccurateRip signature : 0D8D536F ->Accurately ripped! (confidence 60) Statistics Read error : 0 Skipped (treated as error) : 0 Edge jitter error (maybe fixed) : 0 Atom jitter error (maybe fixed) : 0 Drift error (maybe fixed) : 0 Dropped bytes error (maybe fixed) : 0 Duplicated bytes error (maybe fixed) : 0 Inconsistency in error sectors : 0

Track 19 Filename : /Users/Sander/Documents/19 John Williams - Ewok Celebration/Finale.flac

Pre-gap length : 00:02:50

Track gain : -2.25 dB Peak : 0.972870 CRC32 hash (test run) : 879E6EC6 CRC32 hash : 879E6EC6 CRC32 hash (skip zero) : 582F6624 AccurateRip signature : 6B4D8854 ->Accurately ripped! (confidence 58) Statistics Read error : 0 Skipped (treated as error) : 0 Edge jitter error (maybe fixed) : 0 Atom jitter error (maybe fixed) : 0 Drift error (maybe fixed) : 0 Dropped bytes error (maybe fixed) : 0 Duplicated bytes error (maybe fixed) : 0 Inconsistency in error sectors : 0

No errors occurred

End of status report
 
X Lossless Decoder version 20100301 (116.5)

XLD extraction logfile from 2010-03-01 16:22:45 +0000

John Williams / Star Wars Trilogy [Disc 4]

Used drive : HL-DT-ST DVDRW GSA-S10N (revision BP08)

Use cdparanoia mode : YES (CDParanoia III 10.2 engine)Disable audio cache : OK for the drive with cache less than 2750KBMake use of C2 pointers : NORead offset correction : 667Max retry count : 100

TOC of the extracted CD Track | Start | Length | Start sector | End sector --------------------------------------------------------- 1 | 00:00:00 | 00:23:02 | 0 | 1726 2 | 00:23:02 | 02:21:25 | 1727 | 12326 3 | 02:44:27 | 03:08:23 | 12327 | 26449 4 | 05:52:50 | 02:14:32 | 26450 | 36531 5 | 08:07:07 | 01:36:25 | 36532 | 43756 6 | 09:43:32 | 04:04:55 | 43757 | 62111 7 | 13:48:12 | 02:50:45 | 62112 | 74906 8 | 16:38:57 | 03:06:15 | 74907 | 88871 9 | 19:44:72 | 03:38:73 | 88872 | 105294 10 | 23:23:70 | 02:46:25 | 105295 | 117769 11 | 26:10:20 | 02:50:20 | 117770 | 130539 12 | 29:00:40 | 03:46:15 | 130540 | 147504 13 | 32:46:55 | 04:12:35 | 147505 | 166439 14 | 36:59:15 | 03:10:47 | 166440 | 180736 15 | 40:09:62 | 01:17:05 | 180737 | 186516 16 | 41:26:67 | 02:59:15 | 186517 | 199956 17 | 44:26:07 | 11:12:55 | 199957 | 250411 18 | 55:38:62 | 05:22:43 | 250412 | 274604 19 | 61:01:30 | 05:06:05 | 274605 | 297559 20 | 66:07:35 | 02:30:27 | 297560 | 308836 21 | 68:37:62 | 06:21:65 | 308837 | 337476

List of alternate offset correction values # | Absolute | Relative | Confidence ------------------------------------------ 1 | 1476 | 809 | 15

All Tracks Album gain : -2.30 dB Peak : 0.972900

Track 01 Filename : /Users/Sander/Documents/01 John Williams - Twentieth Century Fox Fanfare With CinemaScope Extension.flac

Pre-gap length : 00:02:00

Track gain : -2.11 dB Peak : 0.842316 CRC32 hash (test run) : AE122F78 CRC32 hash : AE122F78 CRC32 hash (skip zero) : 43AEE78F AccurateRip signature : D7755B00 ->Accurately ripped! (confidence 57) Statistics Read error : 0 Skipped (treated as error) : 0 Edge jitter error (maybe fixed) : 0 Atom jitter error (maybe fixed) : 0 Drift error (maybe fixed) : 0 Dropped bytes error (maybe fixed) : 0 Duplicated bytes error (maybe fixed) : 0 Inconsistency in error sectors : 0

Track 02 Filename : /Users/Sander/Documents/02 John Williams - Main Title (Alternate).flac

Track gain : -4.86 dB Peak : 0.818115 CRC32 hash (test run) : AFF3CC0A CRC32 hash : AFF3CC0A CRC32 hash (skip zero) : 2F81EB96 AccurateRip signature : E3FE69C5 ->Accurately ripped! (confidence 58) Statistics Read error : 0 Skipped (treated as error) : 0 Edge jitter error (maybe fixed) : 0 Atom jitter error (maybe fixed) : 0 Drift error (maybe fixed) : 0 Dropped bytes error (maybe fixed) : 0 Duplicated bytes error (maybe fixed) : 0 Inconsistency in error sectors : 0

Track 03 Filename : /Users/Sander/Documents/03 John Williams - Heroic Ewok/The Fleet Goes Into Hyperspace.flac

Pre-gap length : 00:03:70

Track gain : -3.51 dB Peak : 0.803925 CRC32 hash (test run) : 5DB7A107 CRC32 hash : 5DB7A107 CRC32 hash (skip zero) : DD9E92DF AccurateRip signature : CDEB3CAD ->Accurately ripped! (confidence 57) Statistics Read error : 0 Skipped (treated as error) : 0 Edge jitter error (maybe fixed) : 0 Atom jitter error (maybe fixed) : 0 Drift error (maybe fixed) : 0 Dropped bytes error (maybe fixed) : 0 Duplicated bytes error (maybe fixed) : 0 Inconsistency in error sectors : 0

Track 04 Filename : /Users/Sander/Documents/04 John Williams - A Hive Of Villainy.flac

Pre-gap length : 00:02:48

Track gain : 4.62 dB Peak : 0.783508 CRC32 hash (test run) : 169E1D20 CRC32 hash : 169E1D20 CRC32 hash (skip zero) : 22D9D428 AccurateRip signature : 700DB998 ->Accurately ripped! (confidence 58) Statistics Read error : 0 Skipped (treated as error) : 0 Edge jitter error (maybe fixed) : 0 Atom jitter error (maybe fixed) : 0 Drift error (maybe fixed) : 0 Dropped bytes error (maybe fixed) : 0 Duplicated bytes error (maybe fixed) : 0 Inconsistency in error sectors : 0

Track 05 Filename : /Users/Sander/Documents/05 John Williams - Destruction Of Alderaan.flac

Pre-gap length : 00:02:07

Track gain : 0.96 dB Peak : 0.655182 CRC32 hash (test run) : D62CA675 CRC32 hash : D62CA675 CRC32 hash (skip zero) : 5C8A972C AccurateRip signature : 6173280C ->Accurately ripped! (confidence 58) Statistics Read error : 0 Skipped (treated as error) : 0 Edge jitter error (maybe fixed) : 0 Atom jitter error (maybe fixed) : 0 Drift error (maybe fixed) : 0 Dropped bytes error (maybe fixed) : 0 Duplicated bytes error (maybe fixed) : 0 Inconsistency in error sectors : 0

Track 06 Filename : /Users/Sander/Documents/06 John Williams - Drawing The Battle Lines/Leia's Instructions.flac

Pre-gap length : 00:04:20

Track gain : -2.33 dB Peak : 0.868835 CRC32 hash (test run) : 06ED951E CRC32 hash : 06ED951E CRC32 hash (skip zero) : A7AA43F3 AccurateRip signature : 0E708D6E ->Accurately ripped! (confidence 58) Statistics Read error : 0 Skipped (treated as error) : 0 Edge jitter error (maybe fixed) : 0 Atom jitter error (maybe fixed) : 0 Drift error (maybe fixed) : 0 Dropped bytes error (maybe fixed) : 0 Duplicated bytes error (maybe fixed) : 0 Inconsistency in error sectors : 0

Track 07 Filename : /Users/Sander/Documents/07 John Williams - The Ewok Battle.flac

Pre-gap length : 00:02:22

Track gain : -4.32 dB Peak : 0.804230 CRC32 hash (test run) : FF280F7C CRC32 hash : FF280F7C CRC32 hash (skip zero) : F4F33D46 AccurateRip signature : 467EEE3C ->Accurately ripped! (confidence 57) Statistics Read error : 0 Skipped (treated as error) : 0 Edge jitter error (maybe fixed) : 0 Atom jitter error (maybe fixed) : 0 Drift error (maybe fixed) : 0 Dropped bytes error (maybe fixed) : 0 Duplicated bytes error (maybe fixed) : 0 Inconsistency in error sectors : 0

Track 08 Filename : /Users/Sander/Documents/08 John Williams - Attack Position.flac

Pre-gap length : 00:01:40

Track gain : 0.57 dB Peak : 0.972900 CRC32 hash (test run) : 867DF303 CRC32 hash : 867DF303 CRC32 hash (skip zero) : 7F8E612F AccurateRip signature : D5FDE915 ->Accurately ripped! (confidence 58) Statistics Read error : 0 Skipped (treated as error) : 0 Edge jitter error (maybe fixed) : 0 Atom jitter error (maybe fixed) : 0 Drift error (maybe fixed) : 0 Dropped bytes error (maybe fixed) : 0 Duplicated bytes error (maybe fixed) : 0 Inconsistency in error sectors : 0

Track 09 Filename : /Users/Sander/Documents/09 John Williams - Crash Landing.flac

Pre-gap length : 00:02:05

Track gain : -3.52 dB Peak : 0.972870 CRC32 hash (test run) : 2C340886 CRC32 hash : 2C340886 CRC32 hash (skip zero) : 1C19277D AccurateRip signature : 8760C86B ->Accurately ripped! (confidence 58) Statistics Read error : 0 Skipped (treated as error) : 0 Edge jitter error (maybe fixed) : 0 Atom jitter error (maybe fixed) : 0 Drift error (maybe fixed) : 0 Dropped bytes error (maybe fixed) : 0 Duplicated bytes error (maybe fixed) : 0 Inconsistency in error sectors : 0

Track 10 Filename : /Users/Sander/Documents/10 John Williams - Cantina Band.flac

Pre-gap length : 00:03:03

Track gain : -1.54 dB Peak : 0.518646 CRC32 hash (test run) : 797358CA CRC32 hash : 797358CA CRC32 hash (skip zero) : 29C96FE8 AccurateRip signature : 007A0CDF ->Accurately ripped! (confidence 59) Statistics Read error : 0 Skipped (treated as error) : 0 Edge jitter error (maybe fixed) : 0 Atom jitter error (maybe fixed) : 0 Drift error (maybe fixed) : 0 Dropped bytes error (maybe fixed) : 0 Duplicated bytes error (maybe fixed) : 0 Inconsistency in error sectors : 0

Track 11 Filename : /Users/Sander/Documents/11 John Williams - Lapti Nek.flac

Track gain : -1.36 dB Peak : 0.850922 CRC32 hash (test run) : 172685DB CRC32 hash : 172685DB CRC32 hash (skip zero) : EC09B0C2 AccurateRip signature : 30C9769A ->Accurately ripped! (confidence 57) Statistics Read error : 0 Skipped (treated as error) : 0 Edge jitter error (maybe fixed) : 0 Atom jitter error (maybe fixed) : 0 Drift error (maybe fixed) : 0 Dropped bytes error (maybe fixed) : 0 Duplicated bytes error (maybe fixed) : 0 Inconsistency in error sectors : 0

Track 12 Filename : /Users/Sander/Documents/12 John Williams - Cantina Band #2.flac

Pre-gap length : 00:01:65

Track gain : -0.28 dB Peak : 0.442993 CRC32 hash (test run) : 1E7A83EF CRC32 hash : 1E7A83EF CRC32 hash (skip zero) : AFDA3691 AccurateRip signature : 739FA600 ->Accurately ripped! (confidence 59) Statistics Read error : 0 Skipped (treated as error) : 0 Edge jitter error (maybe fixed) : 0 Atom jitter error (maybe fixed) : 0 Drift error (maybe fixed) : 0 Dropped bytes error (maybe fixed) : 0 Duplicated bytes error (maybe fixed) : 0 Inconsistency in error sectors : 0

Track 13 Filename : /Users/Sander/Documents/13 John Williams - Faking The Code.flac

Pre-gap length : 00:01:45

Track gain : 0.79 dB Peak : 0.881866 CRC32 hash (test run) : 28A303F8 CRC32 hash : 28A303F8 CRC32 hash (skip zero) : 17C54098 AccurateRip signature : 0E74330E ->Accurately ripped! (confidence 57) Statistics Read error : 0 Skipped (treated as error) : 0 Edge jitter error (maybe fixed) : 0 Atom jitter error (maybe fixed) : 0 Drift error (maybe fixed) : 0 Dropped bytes error (maybe fixed) : 0 Duplicated bytes error (maybe fixed) : 0 Inconsistency in error sectors : 0

Track 14 Filename : /Users/Sander/Documents/14 John Williams - Brother And Sister.flac

Pre-gap length : 00:02:40

Track gain : 3.79 dB Peak : 0.492371 CRC32 hash (test run) : F525B14C CRC32 hash : F525B14C CRC32 hash (skip zero) : BF0C56B8 AccurateRip signature : 8F7F3F10 ->Accurately ripped! (confidence 57) Statistics Read error : 0 Skipped (treated as error) : 0 Edge jitter error (maybe fixed) : 0 Atom jitter error (maybe fixed) : 0 Drift error (maybe fixed) : 0 Dropped bytes error (maybe fixed) : 0 Duplicated bytes error (maybe fixed) : 0 Inconsistency in error sectors : 0

Track 15 Filename : /Users/Sander/Documents/15 John Williams - Standing By.flac

Pre-gap length : 00:02:15

Track gain : -2.65 dB Peak : 0.804993 CRC32 hash (test run) : 72213A28 CRC32 hash : 72213A28 CRC32 hash (skip zero) : 15D81A55 AccurateRip signature : 94440878 ->Accurately ripped! (confidence 58) Statistics Read error : 0 Skipped (treated as error) : 0 Edge jitter error (maybe fixed) : 0 Atom jitter error (maybe fixed) : 0 Drift error (maybe fixed) : 0 Dropped bytes error (maybe fixed) : 0 Duplicated bytes error (maybe fixed) : 0 Inconsistency in error sectors : 0

Track 16 Filename : /Users/Sander/Documents/16 John Williams - Leia Is Wounded/Luke And Vader Duel.flac

Pre-gap length : 00:02:45

Track gain : -2.65 dB Peak : 0.648071 CRC32 hash (test run) : C633F0FF CRC32 hash : C633F0FF CRC32 hash (skip zero) : CE76DBD7 AccurateRip signature : 6506C188 ->Accurately ripped! (confidence 57) Statistics Read error : 0 Skipped (treated as error) : 0 Edge jitter error (maybe fixed) : 0 Atom jitter error (maybe fixed) : 0 Drift error (maybe fixed) : 0 Dropped bytes error (maybe fixed) : 0 Duplicated bytes error (maybe fixed) : 0 Inconsistency in error sectors : 0

Track 17 Filename : /Users/Sander/Documents/17 John Williams - Carbon Freeze/Luke Pursues The Captives/Departure Of Boba Fett.flac

Pre-gap length : 00:02:22

Track gain : -3.04 dB Peak : 0.972870 CRC32 hash (test run) : B0E67E3D CRC32 hash : B0E67E3D CRC32 hash (skip zero) : A9CCAEFD AccurateRip signature : 231284C1 ->Accurately ripped! (confidence 58) Statistics Read error : 0 Skipped (treated as error) : 0 Edge jitter error (maybe fixed) : 0 Atom jitter error (maybe fixed) : 0 Drift error (maybe fixed) : 0 Dropped bytes error (maybe fixed) : 0 Duplicated bytes error (maybe fixed) : 0 Inconsistency in error sectors : 0

Track 18 Filename : /Users/Sander/Documents/18 John Williams - Losing A Hand.flac

Pre-gap length : 00:03:52

Track gain : 1.70 dB Peak : 0.960388 CRC32 hash (test run) : 9A2768CB CRC32 hash : 9A2768CB CRC32 hash (skip zero) : FE388AB1 AccurateRip signature : 5A5F59C9 ->Accurately ripped! (confidence 58) Statistics Read error : 0 Skipped (treated as error) : 0 Edge jitter error (maybe fixed) : 0 Atom jitter error (maybe fixed) : 0 Drift error (maybe fixed) : 0 Dropped bytes error (maybe fixed) : 0 Duplicated bytes error (maybe fixed) : 0 Inconsistency in error sectors : 0

Track 19 Filename : /Users/Sander/Documents/19 John Williams - The Return Of The Jedi (Alternate).flac

Pre-gap length : 00:02:60

Track gain : -2.71 dB Peak : 0.766663 CRC32 hash (test run) : 430300EE CRC32 hash : 430300EE CRC32 hash (skip zero) : 0E43AA61 AccurateRip signature : 5AA0CACA ->Accurately ripped! (confidence 57) Statistics Read error : 0 Skipped (treated as error) : 0 Edge jitter error (maybe fixed) : 0 Atom jitter error (maybe fixed) : 0 Drift error (maybe fixed) : 0 Dropped bytes error (maybe fixed) : 0 Duplicated bytes error (maybe fixed) : 0 Inconsistency in error sectors : 0

Track 20 Filename : /Users/Sander/Documents/20 John Williams - Leia Breaks The News (Alternate)/Funeral Pyre For A Jedi (Film Version).flac

Pre-gap length : 00:02:55

Track gain : 5.00 dB Peak : 0.543121 CRC32 hash (test run) : 942422BE CRC32 hash : 942422BE CRC32 hash (skip zero) : 80EF5875 AccurateRip signature : A19CBFFA ->Accurately ripped! (confidence 57) Statistics Read error : 0 Skipped (treated as error) : 0 Edge jitter error (maybe fixed) : 0 Atom jitter error (maybe fixed) : 0 Drift error (maybe fixed) : 0 Dropped bytes error (maybe fixed) : 0 Duplicated bytes error (maybe fixed) : 0 Inconsistency in error sectors : 0

Track 21 Filename : /Users/Sander/Documents/21 John Williams - Ewok Celebration (Film Version)/End Credits (Film Version).flac

Pre-gap length : 00:02:27

Track gain : -1.86 dB Peak : 0.972900 CRC32 hash (test run) : 967BE0C2 CRC32 hash : 967BE0C2 CRC32 hash (skip zero) : B84583EE AccurateRip signature : 830481AF ->Accurately ripped! (confidence 59) Statistics Read error : 0 Skipped (treated as error) : 0 Edge jitter error (maybe fixed) : 0 Atom jitter error (maybe fixed) : 0 Drift error (maybe fixed) : 0 Dropped bytes error (maybe fixed) : 0 Duplicated bytes error (maybe fixed) : 0 Inconsistency in error sectors : 0

No errors occurred

End of status report
 
TITLE "Star Wars Trilogy [Disc 1]"PERFORMER "John Williams: London Symphony Orchestra"REM GENRE "Soundtrack"REM DATE 1993FILE "01 John Williams: London Symphony Orchestra - Newman: Twentieth Century Fox Fanfare With CinemaScope Extension.wav" WAVE TRACK 01 AUDIO TITLE "Newman: Twentieth Century Fox Fanfare With CinemaScope Extension" INDEX 01 00:00:00 TRACK 02 AUDIO TITLE "Williams: Star Wars Theme" INDEX 00 00:22:70FILE "02 John Williams: London Symphony Orchestra - Williams: Star Wars Theme.wav" WAVE INDEX 01 00:00:00 TRACK 03 AUDIO TITLE "Williams: Imperial Attack" INDEX 00 05:23:40FILE "03 John Williams: London Symphony Orchestra - Williams: Imperial Attack.wav" WAVE INDEX 01 00:00:00 TRACK 04 AUDIO TITLE "Williams: The Desert, The Robot Auction" INDEX 00 06:41:13FILE "04 John Williams: London Symphony Orchestra - Williams: The Desert, The Robot Auction.wav" WAVE INDEX 01 00:00:00 TRACK 05 AUDIO TITLE "Williams: The Little People Work" INDEX 00 02:51:13FILE "05 John Williams: London Symphony Orchestra - Williams: The Little People Work.wav" WAVE INDEX 01 00:00:00 TRACK 06 AUDIO TITLE "Williams: The Princess Appears" INDEX 00 04:08:22FILE "06 John Williams: London Symphony Orchestra - Williams: The Princess Appears.wav" WAVE INDEX 01 00:00:00 TRACK 07 AUDIO TITLE "Williams: The Land Of The Sand People" INDEX 00 04:07:05FILE "07 John Williams: London Symphony Orchestra - Williams: The Land Of The Sand People.wav" WAVE INDEX 01 00:00:00 TRACK 08 AUDIO TITLE "Williams: The Return Home" INDEX 00 02:55:57FILE "08 John Williams: London Symphony Orchestra - Williams: The Return Home.wav" WAVE INDEX 01 00:00:00 TRACK 09 AUDIO TITLE "Williams: Inner City" INDEX 00 02:49:10FILE "09 John Williams: London Symphony Orchestra - Williams: Inner City.wav" WAVE INDEX 01 00:00:00 TRACK 10 AUDIO TITLE "Williams: Mouse Robot, Blasting Off" INDEX 00 04:44:73FILE "10 John Williams: London Symphony Orchestra - Williams: Mouse Robot, Blasting Off.wav" WAVE INDEX 01 00:00:00 TRACK 11 AUDIO TITLE "Williams: Rescue Of The Princess" INDEX 00 04:03:57FILE "11 John Williams: London Symphony Orchestra - Williams: Rescue Of The Princess.wav" WAVE INDEX 01 00:00:00 TRACK 12 AUDIO TITLE "Williams: The Walls Converge" INDEX 00 04:49:15FILE "12 John Williams: London Symphony Orchestra - Williams: The Walls Converge.wav" WAVE INDEX 01 00:00:00 TRACK 13 AUDIO TITLE "Williams: Ben's Death, TIE Fighter Attack" INDEX 00 04:34:10FILE "13 John Williams: London Symphony Orchestra - Williams: Ben's Death, TIE Fighter Attack.wav" WAVE INDEX 01 00:00:00 TRACK 14 AUDIO TITLE "Williams: Princess Leia's Theme" INDEX 00 03:52:22FILE "14 John Williams: London Symphony Orchestra - Williams: Princess Leia's Theme.wav" WAVE INDEX 01 00:00:00 TRACK 15 AUDIO TITLE "Williams: The Last Battle" INDEX 00 04:23:48FILE "15 John Williams: London Symphony Orchestra - Williams: The Last Battle.wav" WAVE INDEX 01 00:00:00 TRACK 16 AUDIO TITLE "Williams: The Throne Room, End Titles" INDEX 00 12:13:65FILE "16 John Williams: London Symphony Orchestra - Williams: The Throne Room, End Titles.wav" WAVE INDEX 01 00:00:00
 
TITLE "Star Wars Trilogy [Disc 2]"PERFORMER "John Williams: London Symphony Orchestra"REM GENRE "Soundtrack"REM DATE 1993FILE "01 John Williams: London Symphony Orchestra - Newman: Twentieth Century Fox Fanfare With CinemaScope Extension.wav" WAVE TRACK 01 AUDIO TITLE "Newman: Twentieth Century Fox Fanfare With CinemaScope Extension" INDEX 01 00:00:00 TRACK 02 AUDIO TITLE "Williams: Star Wars Theme;The Imperial Probe (Extended Version)" INDEX 00 00:23:12FILE "02 John Williams: London Symphony Orchestra - Williams: Star Wars Theme;The Imperial Probe (Extended Version).wav" WAVE INDEX 01 00:00:00 TRACK 03 AUDIO TITLE "Williams: Luke's Escape" INDEX 00 07:58:13FILE "03 John Williams: London Symphony Orchestra - Williams: Luke's Escape.wav" WAVE INDEX 01 00:00:00 TRACK 04 AUDIO TITLE "Williams: Luke's Rescue" INDEX 00 03:34:28FILE "04 John Williams: London Symphony Orchestra - Williams: Luke's Rescue.wav" WAVE INDEX 01 00:00:00 TRACK 05 AUDIO TITLE "Williams: The Imperial March (Darth Vader's Theme)" INDEX 00 01:46:38FILE "05 John Williams: London Symphony Orchestra - Williams: The Imperial March (Darth Vader's Theme).wav" WAVE INDEX 01 00:00:00 TRACK 06 AUDIO TITLE "Williams: The Battle In The Snow" INDEX 00 02:59:35FILE "06 John Williams: London Symphony Orchestra - Williams: The Battle In The Snow.wav" WAVE INDEX 01 00:00:00 TRACK 07 AUDIO TITLE "Williams: Luke's First Crash" INDEX 00 03:45:40FILE "07 John Williams: London Symphony Orchestra - Williams: Luke's First Crash.wav" WAVE INDEX 01 00:00:00 TRACK 08 AUDIO TITLE "Williams: The Rebels Escape Again" INDEX 00 04:12:50FILE "08 John Williams: London Symphony Orchestra - Williams: The Rebels Escape Again.wav" WAVE INDEX 01 00:00:00 TRACK 09 AUDIO TITLE "Williams: The Asteroid Field" INDEX 00 02:59:50FILE "09 John Williams: London Symphony Orchestra - Williams: The Asteroid Field.wav" WAVE INDEX 01 00:00:00 TRACK 10 AUDIO TITLE "Williams: Yoda's Theme" INDEX 00 04:14:60FILE "10 John Williams: London Symphony Orchestra - Williams: Yoda's Theme.wav" WAVE INDEX 01 00:00:00 TRACK 11 AUDIO TITLE "Williams: Han Solo And The Princess" INDEX 00 03:26:38FILE "11 John Williams: London Symphony Orchestra - Williams: Han Solo And The Princess.wav" WAVE INDEX 01 00:00:00 TRACK 12 AUDIO TITLE "Williams: The Training Of A Jedi Knight" INDEX 00 03:26:22FILE "12 John Williams: London Symphony Orchestra - Williams: The Training Of A Jedi Knight.wav" WAVE INDEX 01 00:00:00 TRACK 13 AUDIO TITLE "Williams: The Magic Tree" INDEX 00 03:13:43FILE "13 John Williams: London Symphony Orchestra - Williams: The Magic Tree.wav" WAVE INDEX 01 00:00:00 TRACK 14 AUDIO TITLE "Williams: Yoda And The Force" INDEX 00 03:32:62FILE "14 John Williams: London Symphony Orchestra - Williams: Yoda And The Force.wav" WAVE INDEX 01 00:00:00 TRACK 15 AUDIO TITLE "Williams: City In The Clouds" INDEX 00 04:02:12FILE "15 John Williams: London Symphony Orchestra - Williams: City In The Clouds.wav" WAVE INDEX 01 00:00:00 TRACK 16 AUDIO TITLE "Williams: Lando's Palace" INDEX 00 06:50:40FILE "16 John Williams: London Symphony Orchestra - Williams: Lando's Palace.wav" WAVE INDEX 01 00:00:00 TRACK 17 AUDIO TITLE "Williams: The Duel" INDEX 00 03:51:73FILE "17 John Williams: London Symphony Orchestra - Williams: The Duel.wav" WAVE INDEX 01 00:00:00 TRACK 18 AUDIO TITLE "Williams: Hyperspace" INDEX 00 04:14:45FILE "18 John Williams: London Symphony Orchestra - Williams: Hyperspace.wav" WAVE INDEX 01 00:00:00 TRACK 19 AUDIO TITLE "Williams: Finale; End Credits" INDEX 00 04:03:55FILE "19 John Williams: London Symphony Orchestra - Williams: Finale; End Credits.wav" WAVE INDEX 01 00:00:00
 
TITLE "Star Wars Trilogy [Disc 3]"PERFORMER "John Williams"REM GENRE "Soundtrack"REM DATE 1993FILE "01 John Williams - Twentieth Century Fox Fanfare With CinemaScope Extension.wav" WAVE TRACK 01 AUDIO TITLE "Twentieth Century Fox Fanfare With CinemaScope Extension" INDEX 01 00:00:00FILE "02 John Williams - Main Title/Approaching The Death Star.wav" WAVE TRACK 02 AUDIO TITLE "Main Title/Approaching The Death Star" INDEX 01 00:00:00 TRACK 03 AUDIO TITLE "Han Solo Returns (At The Court Of Jabba The Hutt)" INDEX 00 05:18:20FILE "03 John Williams - Han Solo Returns (At The Court Of Jabba The Hutt).wav" WAVE INDEX 01 00:00:00 TRACK 04 AUDIO TITLE "Fight In The Dungeon" INDEX 00 04:07:00FILE "04 John Williams - Fight In The Dungeon.wav" WAVE INDEX 01 00:00:00 TRACK 05 AUDIO TITLE "The Return Of The Jedi" INDEX 00 03:39:18FILE "05 John Williams - The Return Of The Jedi.wav" WAVE INDEX 01 00:00:00 TRACK 06 AUDIO TITLE "The Emperor Arrives" INDEX 00 05:00:02FILE "06 John Williams - The Emperor Arrives.wav" WAVE INDEX 01 00:00:00 TRACK 07 AUDIO TITLE "The Death Of Yoda" INDEX 00 02:05:10FILE "07 John Williams - The Death Of Yoda.wav" WAVE INDEX 01 00:00:00 TRACK 08 AUDIO TITLE "Parade Of The Ewoks" INDEX 00 06:03:27FILE "08 John Williams - Parade Of The Ewoks.wav" WAVE INDEX 01 00:00:00 TRACK 09 AUDIO TITLE "Luke And Leia" INDEX 00 03:24:52FILE "09 John Williams - Luke And Leia.wav" WAVE INDEX 01 00:00:00 TRACK 10 AUDIO TITLE "The Emperor Confronts Luke" INDEX 00 04:44:05FILE "10 John Williams - The Emperor Confronts Luke.wav" WAVE INDEX 01 00:00:00 TRACK 11 AUDIO TITLE "Into The Trap" INDEX 00 03:26:37FILE "11 John Williams - Into The Trap.wav" WAVE INDEX 01 00:00:00 TRACK 12 AUDIO TITLE "First Ewok Battle/Fight With The Fighters" INDEX 00 02:36:42FILE "12 John Williams - First Ewok Battle/Fight With The Fighters.wav" WAVE INDEX 01 00:00:00 TRACK 13 AUDIO TITLE "The Forest Battle" INDEX 00 07:18:43FILE "13 John Williams - The Forest Battle.wav" WAVE INDEX 01 00:00:00 TRACK 14 AUDIO TITLE "Final Duel/Into The Death Star" INDEX 00 04:01:28FILE "14 John Williams - Final Duel/Into The Death Star.wav" WAVE INDEX 01 00:00:00 TRACK 15 AUDIO TITLE "The Emperor's Death" INDEX 00 03:37:60FILE "15 John Williams - The Emperor's Death.wav" WAVE INDEX 01 00:00:00 TRACK 16 AUDIO TITLE "Darth Vader's Death" INDEX 00 02:41:52FILE "16 John Williams - Darth Vader's Death.wav" WAVE INDEX 01 00:00:00 TRACK 17 AUDIO TITLE "Through The Flames" INDEX 00 02:31:17FILE "17 John Williams - Through The Flames.wav" WAVE INDEX 01 00:00:00 TRACK 18 AUDIO TITLE "Leia Breaks The News/Funeral Pyre For A Jedi" INDEX 00 01:36:38FILE "18 John Williams - Leia Breaks The News/Funeral Pyre For A Jedi.wav" WAVE INDEX 01 00:00:00 TRACK 19 AUDIO TITLE "Ewok Celebration/Finale" INDEX 00 02:19:68FILE "19 John Williams - Ewok Celebration/Finale.wav" WAVE INDEX 01 00:00:00
 
TITLE "Star Wars Trilogy [Disc 4]"PERFORMER "John Williams"REM GENRE "Soundtrack"REM DATE 1993FILE "01 John Williams - Twentieth Century Fox Fanfare With CinemaScope Extension.wav" WAVE TRACK 01 AUDIO TITLE "Twentieth Century Fox Fanfare With CinemaScope Extension" INDEX 01 00:00:00FILE "02 John Williams - Main Title (Alternate).wav" WAVE TRACK 02 AUDIO TITLE "Main Title (Alternate)" INDEX 01 00:00:00 TRACK 03 AUDIO TITLE "Heroic Ewok/The Fleet Goes Into Hyperspace" INDEX 00 02:17:30FILE "03 John Williams - Heroic Ewok/The Fleet Goes Into Hyperspace.wav" WAVE INDEX 01 00:00:00 TRACK 04 AUDIO TITLE "A Hive Of Villainy" INDEX 00 03:05:50FILE "04 John Williams - A Hive Of Villainy.wav" WAVE INDEX 01 00:00:00 TRACK 05 AUDIO TITLE "Destruction Of Alderaan" INDEX 00 02:12:25FILE "05 John Williams - Destruction Of Alderaan.wav" WAVE INDEX 01 00:00:00 TRACK 06 AUDIO TITLE "Drawing The Battle Lines/Leia's Instructions" INDEX 00 01:32:05FILE "06 John Williams - Drawing The Battle Lines/Leia's Instructions.wav" WAVE INDEX 01 00:00:00 TRACK 07 AUDIO TITLE "The Ewok Battle" INDEX 00 04:02:33FILE "07 John Williams - The Ewok Battle.wav" WAVE INDEX 01 00:00:00 TRACK 08 AUDIO TITLE "Attack Position" INDEX 00 02:49:05FILE "08 John Williams - Attack Position.wav" WAVE INDEX 01 00:00:00 TRACK 09 AUDIO TITLE "Crash Landing" INDEX 00 03:04:10FILE "09 John Williams - Crash Landing.wav" WAVE INDEX 01 00:00:00 TRACK 10 AUDIO TITLE "Cantina Band" INDEX 00 03:35:70FILE "10 John Williams - Cantina Band.wav" WAVE INDEX 01 00:00:00FILE "11 John Williams - Lapti Nek.wav" WAVE TRACK 11 AUDIO TITLE "Lapti Nek" INDEX 01 00:00:00 TRACK 12 AUDIO TITLE "Cantina Band #2" INDEX 00 02:48:30FILE "12 John Williams - Cantina Band #2.wav" WAVE INDEX 01 00:00:00 TRACK 13 AUDIO TITLE "Faking The Code" INDEX 00 03:44:45FILE "13 John Williams - Faking The Code.wav" WAVE INDEX 01 00:00:00 TRACK 14 AUDIO TITLE "Brother And Sister" INDEX 00 04:09:70FILE "14 John Williams - Brother And Sister.wav" WAVE INDEX 01 00:00:00 TRACK 15 AUDIO TITLE "Standing By" INDEX 00 03:08:32FILE "15 John Williams - Standing By.wav" WAVE INDEX 01 00:00:00 TRACK 16 AUDIO TITLE "Leia Is Wounded/Luke And Vader Duel" INDEX 00 01:14:35FILE "16 John Williams - Leia Is Wounded/Luke And Vader Duel.wav" WAVE INDEX 01 00:00:00 TRACK 17 AUDIO TITLE "Carbon Freeze/Luke Pursues The Captives/Departure Of Boba Fett" INDEX 00 02:56:68FILE "17 John Williams - Carbon Freeze/Luke Pursues The Captives/Departure Of Boba Fett.wav" WAVE INDEX 01 00:00:00 TRACK 18 AUDIO TITLE "Losing A Hand" INDEX 00 11:09:03FILE "18 John Williams - Losing A Hand.wav" WAVE INDEX 01 00:00:00 TRACK 19 AUDIO TITLE "The Return Of The Jedi (Alternate)" INDEX 00 05:19:58FILE "19 John Williams - The Return Of The Jedi (Alternate).wav" WAVE INDEX 01 00:00:00 TRACK 20 AUDIO TITLE "Leia Breaks The News (Alternate)/Funeral Pyre For A Jedi (Film Version)" INDEX 00 05:03:25FILE "20 John Williams - Leia Breaks The News (Alternate)/Funeral Pyre For A Jedi (Film Version).wav" WAVE INDEX 01 00:00:00 TRACK 21 AUDIO TITLE "Ewok Celebration (Film Version)/End Credits (Film Version)" INDEX 00 02:28:00FILE "21 John Williams - Ewok Celebration (Film Version)/End Credits (Film Version).wav" WAVE INDEX 01 00:00:00


Трекер:  [ 21-Дек-2010 14:57 ]

  

Скачать .torrent

Размер .torrent файла 25 KB


Размер: 1.46 GB
Хэш (hash) релиза: f5e9e0ad44d09e68b950e97fe4f0eb52136a9abb

bot

Топик был перенесен в форум Саундтреки к фильмам и мультфильмам (lossless)

Перенес AqvaGen

Хотите добавить комментарий к записи скачать торрент John Williams - Star Wars Trilogy: The Original Soundtrack Anthology - 1993, FLAC

!Обратная связь