Скачать через торрент музыку Marc Streitenfeld - Robin Hood Робин Гуд - 2010, FLAC бесплатно без регистрации torrent

Статистика раздачи
Размер:  261 MB   |    Зарегистрирован:  7 лет 4 месяца   |    .torrent скачан:  47 раз   |   
Раздают:  1  
   
загрузка...
 
Автор Сообщение

AqvaGen


Marc Streitenfeld - Robin Hood

Жанр: Score
Год выпуска диска: 2010
Производитель диска: US, Varese Sarabande 302 067 020 2
Аудио кодек: FLAC
Тип рипа: tracks+.cue
Битрейт аудио: lossless
Продолжительность: 51:38


Трэклист:
01. Destiny (03:35)
02. Creatures (02:09)
03. Fate Has Smiled Upon Us (02:01)
04. Godfrey (03:32)
05. Ambush (01:14)
06. Pact Sworn In Blood (02:52)
07. Returning The Crown (01:13)
08. Planting The Fields (01:17)
09. Sherwood Forest (02:19)
10. John Is King (04:01)
11. Robin Speaks (02:31)
12. Killing Walter (01:58)
13. Nottingham Burns (02:11)
14. Siege (02:09)
15. Landing Of The French (02:46)
16. Walter’s Burial (03:04)
17. Preparing For Battle (02:38)
18. Charge (01:18)
19. Clash (02:41)
20. The Final Arrow (02:29)
21. The Legend Begins (01:27)
22. Merry Men (01:48)


Доп. информация:
 
Exact Audio Copy V0.99 prebeta 5 from 4. May 2009

EAC extraction logfile from 15. May 2010, 15:36

Marc Streitenfeld / Robin Hood

Used drive : LITE-ON DVD SHD-16P1S Adapter: 0 ID: 0

Read mode : SecureUtilize accurate stream : YesDefeat audio cache : YesMake use of C2 pointers : No

Read offset correction : 6Overread into Lead-In and Lead-Out : NoFill up missing offset samples with silence : YesDelete leading and trailing silent blocks : NoNull samples used in CRC calculations : YesUsed interface : Installed external ASPI interfaceGap handling : Appended to previous track

Used output format : User Defined EncoderSelected bitrate : 320 kBit/sQuality : HighAdd ID3 tag : NoCommand line compressor : C:\Program Files\FLAC\flac.exeAdditional command line options : -V -8 -T "artist=%a" -T "title=%t" -T "album=%g" -T "date=%y" -T "tracknumber=%n" -T "genre=%m" %s

TOC of the extracted CD

Track | Start | Length | Start sector | End sector --------------------------------------------------------- 1 | 0:00.00 | 3:36.55 | 0 | 16254 2 | 3:36.55 | 2:09.11 | 16255 | 25940 3 | 5:45.66 | 2:02.26 | 25941 | 35116 4 | 7:48.17 | 3:32.39 | 35117 | 51055 5 | 11:20.56 | 1:15.25 | 51056 | 56705 6 | 12:36.06 | 2:52.48 | 56706 | 69653 7 | 15:28.54 | 1:13.55 | 69654 | 75183 8 | 16:42.34 | 1:17.71 | 75184 | 81029 9 | 18:00.30 | 2:19.41 | 81030 | 91495 10 | 20:19.71 | 4:01.56 | 91496 | 109626 11 | 24:21.52 | 2:33.01 | 109627 | 121102 12 | 26:54.53 | 2:01.43 | 121103 | 130220 13 | 28:56.21 | 2:12.04 | 130221 | 140124 14 | 31:08.25 | 2:10.55 | 140125 | 149929 15 | 33:19.05 | 2:48.55 | 149930 | 162584 16 | 36:07.60 | 3:04.62 | 162585 | 176446 17 | 39:12.47 | 2:40.14 | 176447 | 188460 18 | 41:52.61 | 1:18.67 | 188461 | 194377 19 | 43:11.53 | 2:41.01 | 194378 | 206453 20 | 45:52.54 | 2:29.73 | 206454 | 217701 21 | 48:22.52 | 1:27.51 | 217702 | 224277 22 | 49:50.28 | 1:48.14 | 224278 | 232391

Track 1

Filename D:\Musiques\Marc Streitenfeld\Robin Hood\FLAC\01 Destiny.wav

Pre-gap length 0:00:02.00

Peak level 96.9 % Track quality 100.0 % Test CRC 0A93D67C Copy CRC 0A93D67C Track not present in AccurateRip database Copy OK

Track 2

Filename D:\Musiques\Marc Streitenfeld\Robin Hood\FLAC\02 Creatures.wav

Pre-gap length 0:00:01.01

Peak level 96.9 % Track quality 99.9 % Test CRC BBFD0B60 Copy CRC BBFD0B60 Track not present in AccurateRip database Copy OK

Track 3

Filename D:\Musiques\Marc Streitenfeld\Robin Hood\FLAC\03 Fate Has Smiled Upon Us.wav

Peak level 96.9 % Track quality 100.0 % Test CRC 1ED0D8C0 Copy CRC 1ED0D8C0 Track not present in AccurateRip database Copy OK

Track 4

Filename D:\Musiques\Marc Streitenfeld\Robin Hood\FLAC\04 Godfrey.wav

Pre-gap length 0:00:00.37

Peak level 96.9 % Track quality 99.9 % Test CRC D83B14E9 Copy CRC D83B14E9 Track not present in AccurateRip database Copy OK

Track 5

Filename D:\Musiques\Marc Streitenfeld\Robin Hood\FLAC\05 Ambush.wav

Peak level 96.9 % Track quality 100.0 % Test CRC D450F55F Copy CRC D450F55F Track not present in AccurateRip database Copy OK

Track 6

Filename D:\Musiques\Marc Streitenfeld\Robin Hood\FLAC\06 Pact Sworn In Blood.wav

Pre-gap length 0:00:00.52

Peak level 98.8 % Track quality 100.0 % Test CRC 7CC43189 Copy CRC 7CC43189 Track not present in AccurateRip database Copy OK

Track 7

Filename D:\Musiques\Marc Streitenfeld\Robin Hood\FLAC\07 Returning The Crown.wav

Pre-gap length 0:00:00.60

Peak level 96.9 % Track quality 99.8 % Test CRC 769341D9 Copy CRC 769341D9 Track not present in AccurateRip database Copy OK

Track 8

Filename D:\Musiques\Marc Streitenfeld\Robin Hood\FLAC\08 Planting The Fields.wav

Peak level 95.3 % Track quality 100.0 % Test CRC B6BD8C81 Copy CRC B6BD8C81 Track not present in AccurateRip database Copy OK

Track 9

Filename D:\Musiques\Marc Streitenfeld\Robin Hood\FLAC\09 Sherwood Forest.wav

Peak level 96.9 % Track quality 100.0 % Test CRC 50AAB2A1 Copy CRC 50AAB2A1 Track not present in AccurateRip database Copy OK

Track 10

Filename D:\Musiques\Marc Streitenfeld\Robin Hood\FLAC\10 John Is King.wav

Peak level 96.9 % Track quality 99.9 % Test CRC 3AC8523E Copy CRC 3AC8523E Track not present in AccurateRip database Copy OK

Track 11

Filename D:\Musiques\Marc Streitenfeld\Robin Hood\FLAC\11 Robin Speaks.wav

Peak level 96.9 % Track quality 100.0 % Test CRC F21C26FB Copy CRC F21C26FB Track not present in AccurateRip database Copy OK

Track 12

Filename D:\Musiques\Marc Streitenfeld\Robin Hood\FLAC\12 Killing Walter.wav

Pre-gap length 0:00:01.05

Peak level 96.9 % Track quality 100.0 % Test CRC 6355FF24 Copy CRC 6355FF24 Track not present in AccurateRip database Copy OK

Track 13

Filename D:\Musiques\Marc Streitenfeld\Robin Hood\FLAC\13 Nottingham Burns.wav

Pre-gap length 0:00:02.62

Peak level 63.1 % Track quality 100.0 % Test CRC D83A323C Copy CRC D83A323C Track not present in AccurateRip database Copy OK

Track 14

Filename D:\Musiques\Marc Streitenfeld\Robin Hood\FLAC\14 Siege.wav

Pre-gap length 0:00:00.08

Peak level 96.9 % Track quality 100.0 % Test CRC DC2E1FCF Copy CRC DC2E1FCF Track not present in AccurateRip database Copy OK

Track 15

Filename D:\Musiques\Marc Streitenfeld\Robin Hood\FLAC\15 Landing Of The French.wav

Pre-gap length 0:00:01.14

Peak level 96.9 % Track quality 100.0 % Test CRC 8A4D2C21 Copy CRC 8A4D2C21 Track not present in AccurateRip database Copy OK

Track 16

Filename D:\Musiques\Marc Streitenfeld\Robin Hood\FLAC\16 Walter`s Burial.wav

Pre-gap length 0:00:01.80

Peak level 96.9 % Track quality 100.0 % Test CRC 72D91559 Copy CRC 72D91559 Track not present in AccurateRip database Copy OK

Track 17

Filename D:\Musiques\Marc Streitenfeld\Robin Hood\FLAC\17 Preparing For Battle.wav

Pre-gap length 0:00:00.37

Peak level 96.9 % Track quality 100.0 % Test CRC 4960460F Copy CRC 4960460F Track not present in AccurateRip database Copy OK

Track 18

Filename D:\Musiques\Marc Streitenfeld\Robin Hood\FLAC\18 Charge.wav

Pre-gap length 0:00:01.81

Peak level 96.9 % Track quality 100.0 % Test CRC 65448F9B Copy CRC 65448F9B Track not present in AccurateRip database Copy OK

Track 19

Filename D:\Musiques\Marc Streitenfeld\Robin Hood\FLAC\19 Clash.wav

Peak level 96.9 % Track quality 99.9 % Test CRC B568B397 Copy CRC B568B397 Track not present in AccurateRip database Copy OK

Track 20

Filename D:\Musiques\Marc Streitenfeld\Robin Hood\FLAC\20 The Final Arrow.wav

Peak level 96.9 % Track quality 100.0 % Test CRC 24D5EDB8 Copy CRC 24D5EDB8 Track not present in AccurateRip database Copy OK

Track 21

Filename D:\Musiques\Marc Streitenfeld\Robin Hood\FLAC\21 The Legende Begins.wav

Pre-gap length 0:00:00.38

Peak level 91.1 % Track quality 99.8 % Test CRC F5D18D7E Copy CRC F5D18D7E Track not present in AccurateRip database Copy OK

Track 22

Filename D:\Musiques\Marc Streitenfeld\Robin Hood\FLAC\22 Merry Men.wav

Peak level 96.9 % Track quality 100.0 % Test CRC 3E49B1B7 Copy CRC 3E49B1B7 Track not present in AccurateRip database Copy OK

None of the tracks are present in the AccurateRip database

No errors occurred

End of status report
 
REM GENRE SoundtrackREM DATE 2010REM DISCID 250C1A16REM COMMENT "ExactAudioCopy v0.99pb5"PERFORMER "Marc Streitenfeld"TITLE "Robin Hood"FILE "01 Destiny.wav" WAVE TRACK 01 AUDIO TITLE "Destiny" PERFORMER "Marc Streitenfeld" INDEX 01 00:00:00 TRACK 02 AUDIO TITLE "Creatures" PERFORMER "Marc Streitenfeld" INDEX 00 03:35:54FILE "02 Creatures.wav" WAVE INDEX 01 00:00:00FILE "03 Fate Has Smiled Upon Us.wav" WAVE TRACK 03 AUDIO TITLE "Fate Has Smiled Upon Us" PERFORMER "Marc Streitenfeld" INDEX 01 00:00:00 TRACK 04 AUDIO TITLE "Godfrey" PERFORMER "Marc Streitenfeld" INDEX 00 02:01:73FILE "04 Godfrey.wav" WAVE INDEX 01 00:00:00FILE "05 Ambush.wav" WAVE TRACK 05 AUDIO TITLE "Ambush" PERFORMER "Marc Streitenfeld" INDEX 01 00:00:00 TRACK 06 AUDIO TITLE "Pact Sworn In Blood" PERFORMER "Marc Streitenfeld" INDEX 00 01:14:61FILE "06 Pact Sworn In Blood.wav" WAVE INDEX 01 00:00:00 TRACK 07 AUDIO TITLE "Returning The Crown" PERFORMER "Marc Streitenfeld" INDEX 00 02:52:03FILE "07 Returning The Crown.wav" WAVE INDEX 01 00:00:00FILE "08 Planting The Fields.wav" WAVE TRACK 08 AUDIO TITLE "Planting The Fields" PERFORMER "Marc Streitenfeld" INDEX 01 00:00:00FILE "09 Sherwood Forest.wav" WAVE TRACK 09 AUDIO TITLE "Sherwood Forest" PERFORMER "Marc Streitenfeld" INDEX 01 00:00:00FILE "10 John Is King.wav" WAVE TRACK 10 AUDIO TITLE "John Is King" PERFORMER "Marc Streitenfeld" INDEX 01 00:00:00FILE "11 Robin Speaks.wav" WAVE TRACK 11 AUDIO TITLE "Robin Speaks" PERFORMER "Marc Streitenfeld" INDEX 01 00:00:00 TRACK 12 AUDIO TITLE "Killing Walter" PERFORMER "Marc Streitenfeld" INDEX 00 02:31:72FILE "12 Killing Walter.wav" WAVE INDEX 01 00:00:00 TRACK 13 AUDIO TITLE "Nottingham Burns" PERFORMER "Marc Streitenfeld" INDEX 00 01:58:71FILE "13 Nottingham Burns.wav" WAVE INDEX 01 00:00:00 TRACK 14 AUDIO TITLE "Siege" PERFORMER "Marc Streitenfeld" INDEX 00 02:11:73FILE "14 Siege.wav" WAVE INDEX 01 00:00:00 TRACK 15 AUDIO TITLE "Landing Of The French" PERFORMER "Marc Streitenfeld" INDEX 00 02:09:44FILE "15 Landing Of The French.wav" WAVE INDEX 01 00:00:00 TRACK 16 AUDIO TITLE "Walter`s Burial" PERFORMER "Marc Streitenfeld" INDEX 00 02:46:70FILE "16 Walter`s Burial.wav" WAVE INDEX 01 00:00:00 TRACK 17 AUDIO TITLE "Preparing For Battle" PERFORMER "Marc Streitenfeld" INDEX 00 03:04:34FILE "17 Preparing For Battle.wav" WAVE INDEX 01 00:00:00 TRACK 18 AUDIO TITLE "Charge" PERFORMER "Marc Streitenfeld" INDEX 00 02:38:28FILE "18 Charge.wav" WAVE INDEX 01 00:00:00FILE "19 Clash.wav" WAVE TRACK 19 AUDIO TITLE "Clash" PERFORMER "Marc Streitenfeld" INDEX 01 00:00:00FILE "20 The Final Arrow.wav" WAVE TRACK 20 AUDIO TITLE "The Final Arrow" PERFORMER "Marc Streitenfeld" INDEX 01 00:00:00 TRACK 21 AUDIO TITLE "The Legende Begins" PERFORMER "Marc Streitenfeld" INDEX 00 02:29:44FILE "21 The Legende Begins.wav" WAVE INDEX 01 00:00:00FILE "22 Merry Men.wav" WAVE TRACK 22 AUDIO TITLE "Merry Men" PERFORMER "Marc Streitenfeld" INDEX 01 00:00:00


Трекер:  [ 19-Дек-2010 15:30 ]

  

Скачать .torrent

Размер .torrent файла 12 KB


Размер: 261 MB
Хэш (hash) релиза: d97eadbed219d22565d0275084f371de5396a222

bot

Топик был перенесен в форум Саундтреки к фильмам и мультфильмам (lossless)

Перенес AqvaGen

Хотите добавить комментарий к записи скачать торрент Marc Streitenfeld - Robin Hood Робин Гуд - 2010, FLAC

!Обратная связь