Скачать через торрент музыку Джонни Д. Public Enemies бесплатно без регистрации torrent

Статистика раздачи
Размер:  204 MB   |    Зарегистрирован:  7 лет 4 месяца   |    .torrent скачан:  55 раз   |   
Раздают:  1  
   
загрузка...
 
Автор Сообщение

Galfimbul

avatar Galfimbul


Джонни Д. / Public Enemies (Elliot Goldenthal & VA)

Жанр: Soundtrack
Год выпуска диска: 2009
Аудио кодек: FLAC
Тип рипа: tracks+.cue
Битрейт аудио: lossless
Продолжительность: 00:46:31

Трэклист:

01. Ten Million Slaves (Otis Taylor) (04:07)
02. Chicago Shake (The Bruce Fowler Big Band) (03:08)
03. Drive to Bohemia (01:10)
04. Love Me or Leave Me (Billie Holiday ft. Teddy Wilson & His Orchestra) (03:20)
05. Billie's Arrest (02:19)
06. Am I Blue? (Billie Holiday & Her Orchestra) (02:50)
07. Love in the Dunes (01:48)
08. Bye Bye Blackbird (Diana Krall) (03:44)
09. Phone Call to Billie (01:42)
10. Nasty Letter (Otis Taylor) (05:04)
11. Plane to Chicago (03:22)
12. O Guide Me Thou Great Jehova (Indian Bottom Association, Old Regular Baptists & Elliot Goldenthal) (01:35)
13. Gold Coast Restaurant (02:04)
14. The Man I Love (Billie Holiday & Her Orchestra) (03:05)
15. JD Dies (03:54)
16. Dark Was the Night, Cold Was the Ground (Blind Willie Johnson) (03:19)
Exact Audio Copy V0.99 prebeta 5 from 4. May 2009

EAC extraction logfile from 4. July 2009, 22:17

Various / Public Enemies

Used drive : TSSTcorpDVD-ROM TS-H352C Adapter: 1 ID: 1

Read mode : Secure
Utilize accurate stream : Yes
Defeat audio cache : Yes
Make use of C2 pointers : No

Read offset correction : 6
Overread into Lead-In and Lead-Out : No
Fill up missing offset samples with silence : Yes
Delete leading and trailing silent blocks : No
Null samples used in CRC calculations : Yes
Used interface : Installed external ASPI interface
Gap handling : Appended to previous track

Used output format : User Defined Encoder
Selected bitrate : 320 kBit/s
Quality : High
Add ID3 tag : No
Command line compressor : C:\Program Files\FLAC\flac.exe
Additional command line options : -V -8 -T "artist=%a" -T "title=%t" -T "album=%g" -T "date=%y" -T "tracknumber=%n" -T "genre=%m" %s

TOC of the extracted CD

Track | Start | Length | Start sector | End sector
---------------------------------------------------------
1 | 0:00.00 | 4:09.25 | 0 | 18699
2 | 4:09.25 | 3:10.12 | 18700 | 32961
3 | 7:19.37 | 1:11.38 | 32962 | 38324
4 | 8:31.00 | 3:21.67 | 38325 | 53466
5 | 11:52.67 | 2:20.55 | 53467 | 64021
6 | 14:13.47 | 2:52.10 | 64022 | 76931
7 | 17:05.57 | 1:50.03 | 76932 | 85184
8 | 18:55.60 | 3:47.55 | 85185 | 102264
9 | 22:43.40 | 1:44.30 | 102265 | 110094
10 | 24:27.70 | 5:05.72 | 110095 | 133041
11 | 29:33.67 | 3:24.13 | 133042 | 148354
12 | 32:58.05 | 1:37.12 | 148355 | 155641
13 | 34:35.17 | 2:04.25 | 155642 | 164966
14 | 36:39.42 | 3:07.58 | 164967 | 179049
15 | 39:47.25 | 3:56.55 | 179050 | 196804
16 | 43:44.05 | 3:19.05 | 196805 | 211734

Track 1

Filename N:\Music\Public Enemies [2009] - Elliot Goldenthal\Public Enemies [2009, FLAC] - Elliot Goldenthal\01 - Ten Million Slaves.wav

Pre-gap length 0:00:02.00

Peak level 87.0 %
Track quality 100.0 %
Test CRC 34C03B7F
Copy CRC 34C03B7F
Track not present in AccurateRip database
Copy OK

Track 2

Filename N:\Music\Public Enemies [2009] - Elliot Goldenthal\Public Enemies [2009, FLAC] - Elliot Goldenthal\02 - Chicago Shake.wav

Pre-gap length 0:00:01.44

Peak level 83.7 %
Track quality 100.0 %
Test CRC A5C84896
Copy CRC A5C84896
Track not present in AccurateRip database
Copy OK

Track 3

Filename N:\Music\Public Enemies [2009] - Elliot Goldenthal\Public Enemies [2009, FLAC] - Elliot Goldenthal\03 - Drive To Bohemia.wav

Pre-gap length 0:00:02.00

Peak level 90.1 %
Track quality 100.0 %
Test CRC 75DD07A4
Copy CRC 75DD07A4
Track not present in AccurateRip database
Copy OK

Track 4

Filename N:\Music\Public Enemies [2009] - Elliot Goldenthal\Public Enemies [2009, FLAC] - Elliot Goldenthal\04 - Love Me Or Leave Me.wav

Pre-gap length 0:00:01.13

Peak level 80.3 %
Track quality 99.9 %
Test CRC 2B0905F9
Copy CRC 2B0905F9
Track not present in AccurateRip database
Copy OK

Track 5

Filename N:\Music\Public Enemies [2009] - Elliot Goldenthal\Public Enemies [2009, FLAC] - Elliot Goldenthal\05 - Billie's Arrest.wav

Pre-gap length 0:00:01.62

Peak level 99.6 %
Track quality 100.0 %
Test CRC A44CCBB4
Copy CRC A44CCBB4
Track not present in AccurateRip database
Copy OK

Track 6

Filename N:\Music\Public Enemies [2009] - Elliot Goldenthal\Public Enemies [2009, FLAC] - Elliot Goldenthal\06 - Am I Blue .wav

Pre-gap length 0:00:01.29

Peak level 47.3 %
Track quality 100.0 %
Test CRC AD8D5091
Copy CRC AD8D5091
Track not present in AccurateRip database
Copy OK

Track 7

Filename N:\Music\Public Enemies [2009] - Elliot Goldenthal\Public Enemies [2009, FLAC] - Elliot Goldenthal\07 - Love In The Dunes.wav

Pre-gap length 0:00:02.02

Peak level 79.0 %
Track quality 100.0 %
Test CRC F5014E6E
Copy CRC F5014E6E
Track not present in AccurateRip database
Copy OK

Track 8

Filename N:\Music\Public Enemies [2009] - Elliot Goldenthal\Public Enemies [2009, FLAC] - Elliot Goldenthal\08 - Bye Bye Blackbird.wav

Pre-gap length 0:00:01.77

Peak level 58.8 %
Track quality 100.0 %
Test CRC 117D24AF
Copy CRC 117D24AF
Track not present in AccurateRip database
Copy OK

Track 9

Filename N:\Music\Public Enemies [2009] - Elliot Goldenthal\Public Enemies [2009, FLAC] - Elliot Goldenthal\09 - Phone Call To Billie.wav

Pre-gap length 0:00:03.24

Peak level 64.3 %
Track quality 100.0 %
Test CRC F3A3B5DA
Copy CRC F3A3B5DA
Track not present in AccurateRip database
Copy OK

Track 10

Filename N:\Music\Public Enemies [2009] - Elliot Goldenthal\Public Enemies [2009, FLAC] - Elliot Goldenthal\10 - Nasty Letter.wav

Pre-gap length 0:00:01.93

Peak level 26.9 %
Track quality 100.0 %
Test CRC A5A94CE5
Copy CRC A5A94CE5
Track not present in AccurateRip database
Copy OK

Track 11

Filename N:\Music\Public Enemies [2009] - Elliot Goldenthal\Public Enemies [2009, FLAC] - Elliot Goldenthal\11 - Plane To Chicago.wav

Pre-gap length 0:00:01.36

Peak level 100.0 %
Track quality 100.0 %
Test CRC 0A56A0C8
Copy CRC 0A56A0C8
Track not present in AccurateRip database
Copy OK

Track 12

Filename N:\Music\Public Enemies [2009] - Elliot Goldenthal\Public Enemies [2009, FLAC] - Elliot Goldenthal\12 - Guide Me O Thou Great Jehova.wav

Pre-gap length 0:00:01.93

Peak level 67.9 %
Track quality 100.0 %
Test CRC 997DC688
Copy CRC 997DC688
Track not present in AccurateRip database
Copy OK

Track 13

Filename N:\Music\Public Enemies [2009] - Elliot Goldenthal\Public Enemies [2009, FLAC] - Elliot Goldenthal\13 - Gold Coast Restaurant.wav

Pre-gap length 0:00:01.73

Peak level 100.0 %
Track quality 100.0 %
Test CRC 32E2E593
Copy CRC 32E2E593
Track not present in AccurateRip database
Copy OK

Track 14

Filename N:\Music\Public Enemies [2009] - Elliot Goldenthal\Public Enemies [2009, FLAC] - Elliot Goldenthal\14 - The Man I Love.wav

Peak level 39.8 %
Track quality 100.0 %
Test CRC BE4D2D4B
Copy CRC BE4D2D4B
Track not present in AccurateRip database
Copy OK

Track 15

Filename N:\Music\Public Enemies [2009] - Elliot Goldenthal\Public Enemies [2009, FLAC] - Elliot Goldenthal\15 - JD Dies.wav

Pre-gap length 0:00:02.80

Peak level 100.0 %
Track quality 100.0 %
Test CRC 024EBDA5
Copy CRC 024EBDA5
Track not present in AccurateRip database
Copy OK

Track 16

Filename N:\Music\Public Enemies [2009] - Elliot Goldenthal\Public Enemies [2009, FLAC] - Elliot Goldenthal\16 - Dark Was The Night, Cold Was The Ground.wav

Pre-gap length 0:00:02.37

Peak level 26.0 %
Track quality 100.0 %
Test CRC CFE75B0B
Copy CRC CFE75B0B
Track not present in AccurateRip database
Copy OK

None of the tracks are present in the AccurateRip database

No errors occurred

End of status report
AUDIOCHECKER v2.0 beta (build 457) - by Dester - opdester@freemail.hu
~~~~~~~~~~~~~~~~~~~~~~~~~~~~~~~~~~

Started at: вторник, 14. 07. 2009. - 11:18.44
16 files found

01 -===- D:\Download\VA - Public Enemies - 2009\01 - Ten Million Slaves.flac
Extracted successfully
Conclusion: this track is CDDA with probability 100%
Tempfile successfully deleted.

02 -===- D:\Download\VA - Public Enemies - 2009\02 - Chicago Shake.flac
Extracted successfully
Conclusion: this track is CDDA with probability 100%
Tempfile successfully deleted.

03 -===- D:\Download\VA - Public Enemies - 2009\03 - Drive To Bohemia.flac
Extracted successfully
Conclusion: this track is CDDA with probability 100%
Tempfile successfully deleted.

04 -===- D:\Download\VA - Public Enemies - 2009\04 - Love Me Or Leave Me.flac
Extracted successfully
Conclusion: this track is CDDA with probability 100%
Tempfile successfully deleted.

05 -===- D:\Download\VA - Public Enemies - 2009\05 - Billie's Arrest.flac
Extracted successfully
Conclusion: this track is CDDA with probability 100%
Tempfile successfully deleted.

06 -===- D:\Download\VA - Public Enemies - 2009\06 - Am I Blue .flac
Extracted successfully
Conclusion: this track is CDDA with probability 100%
Tempfile successfully deleted.

07 -===- D:\Download\VA - Public Enemies - 2009\07 - Love In The Dunes.flac
Extracted successfully
Conclusion: this track is CDDA with probability 99%
Tempfile successfully deleted.

08 -===- D:\Download\VA - Public Enemies - 2009\08 - Bye Bye Blackbird.flac
Extracted successfully
Conclusion: this track is CDDA with probability 99%
Tempfile successfully deleted.

09 -===- D:\Download\VA - Public Enemies - 2009\09 - Phone Call To Billie.flac
Extracted successfully
Conclusion: this track is CDDA with probability 100%
Tempfile successfully deleted.

10 -===- D:\Download\VA - Public Enemies - 2009\10 - Nasty Letter.flac
Extracted successfully
Conclusion: this track is CDDA with probability 100%
Tempfile successfully deleted.

11 -===- D:\Download\VA - Public Enemies - 2009\11 - Plane To Chicago.flac
Extracted successfully
Conclusion: this track is CDDA with probability 100%
Tempfile successfully deleted.

12 -===- D:\Download\VA - Public Enemies - 2009\12 - Guide Me O Thou Great Jehova.flac
Extracted successfully
Conclusion: this track is CDDA with probability 100%
Tempfile successfully deleted.

13 -===- D:\Download\VA - Public Enemies - 2009\13 - Gold Coast Restaurant.flac
Extracted successfully
Conclusion: this track is CDDA with probability 100%
Tempfile successfully deleted.

14 -===- D:\Download\VA - Public Enemies - 2009\14 - The Man I Love.flac
Extracted successfully
Conclusion: this track is CDDA with probability 100%
Tempfile successfully deleted.

15 -===- D:\Download\VA - Public Enemies - 2009\15 - JD Dies.flac
Extracted successfully
Conclusion: this track is CDDA with probability 100%
Tempfile successfully deleted.

16 -===- D:\Download\VA - Public Enemies - 2009\16 - Dark Was The Night, Cold Was The Ground.flac
Extracted successfully
Conclusion: this track is CDDA with probability 100%
Tempfile successfully deleted.

Finished at: вторник, 14. 07. 2009. - 11:26.30 (operation time: 0:07.46)


Трекер:  [ 07-Июл-2011 22:46 ]

  

Скачать .torrent

Размер .torrent файла 17 KB


Размер: 204 MB
Хэш (hash) релиза: 3fcb5cf793e6e934479b2e52898918ac2dc3f8bd

Торренты, похожие на Джонни Д. Public Enemies скачать торрент

Форум Название Автор Размер S L Добавлен
Саундтреки к фильмам и мультфильмам (mp3) ·· (OST) Джонни Д. / Public Enemies (Elliot Goldenthal & VA) - 2009, MP3 (tracks), 320 kbps Galfimbul 115344077110 MB 0 0 1292265235

21:33

13-Дек-10

Еще никто не оставлял запись к записи скачать торрент Джонни Д. Public Enemies . Будь первым!

!Обратная связь