Скачать через торрент музыку Дом: Свидание с планетой Home бесплатно без регистрации torrent

Статистика раздачи
Размер:  302 MB   |    Зарегистрирован:  7 лет 7 месяцев   |    .torrent скачан:  49 раз   |   
Раздают:  1  
   
загрузка...
 
Автор Сообщение

AqvaGen


Дом: Свидание с планетой / Home
Music by Armand Amar


Жанр: Score | Год выпуска диска: 2009 | Производитель диска: EuropaCorp, France
Аудио кодек: APE | Тип рипа: image+.cue | Битрейт аудио: lossless
Продолжительность: 01:06:33


 
01. Home Part 1 (Vocals - Gombodorj Byambajargal)02. Home Part 203. Home Part 304. Home Part 405. O (Taken From "La Jeune Fille Et Les Loups")06. Life 107. Take The Earth08. Toll Of Toil09. Black Gold10. Chemical Food (Composed By - Mathieu Coupat)11. Feed Lots12. Overproduction13. Whales (Vocals - Adèle Carlier)14. Murderous Catch15. Dubaï16. The Dead Seas17. Faster And Faster18. Épi (Composed By - Mathieu Coupat, Vocals - Ashkan Kamangari , Enkhjargal Dandarvaanchig)19. Life 220. Wasteland21. Rake The Forest22. The Desert23. Fire24. Cum Dederit (Composed By - Vivaldi, Vocals - Sandrine Piau)
 
Exact Audio Copy V0.99 prebeta 5 from 4. May 2009

EAC extraction logfile from 15. August 2009, 12:59

Armand Amar / Home

Used drive : QSI CDRW/DVD SBW-242 Adapter: 1 ID: 0

Read mode : SecureUtilize accurate stream : YesDefeat audio cache : YesMake use of C2 pointers : No

Read offset correction : 6Overread into Lead-In and Lead-Out : NoFill up missing offset samples with silence : YesDelete leading and trailing silent blocks : NoNull samples used in CRC calculations : YesUsed interface : Native Win32 interface for Win NT & 2000

Used output format : Internal WAV RoutinesSample format : 44.100 Hz; 16 Bit; Stereo

TOC of the extracted CD

Track | Start | Length | Start sector | End sector --------------------------------------------------------- 1 | 0:00.00 | 2:12.53 | 0 | 9952 2 | 2:12.53 | 3:41.12 | 9953 | 26539 3 | 5:53.65 | 1:34.18 | 26540 | 33607 4 | 7:28.08 | 2:31.17 | 33608 | 44949 5 | 9:59.25 | 3:02.46 | 44950 | 58645 6 | 13:01.71 | 3:10.12 | 58646 | 72907 7 | 16:12.08 | 3:03.08 | 72908 | 86640 8 | 19:15.16 | 3:15.20 | 86641 | 101285 9 | 22:30.36 | 3:08.60 | 101286 | 115445 10 | 25:39.21 | 3:02.54 | 115446 | 129149 11 | 28:42.00 | 1:23.66 | 129150 | 135440 12 | 30:05.66 | 3:52.52 | 135441 | 152892 13 | 33:58.43 | 1:26.14 | 152893 | 159356 14 | 35:24.57 | 1:42.44 | 159357 | 167050 15 | 37:07.26 | 2:37.19 | 167051 | 178844 16 | 39:44.45 | 3:46.01 | 178845 | 195795 17 | 43:30.46 | 1:57.55 | 195796 | 204625 18 | 45:28.26 | 3:28.09 | 204626 | 220234 19 | 48:56.35 | 2:53.60 | 220235 | 233269 20 | 51:50.20 | 2:04.33 | 233270 | 242602 21 | 53:54.53 | 4:30.38 | 242603 | 262890 22 | 58:25.16 | 1:41.40 | 262891 | 270505 23 | 60:06.56 | 1:22.28 | 270506 | 276683 24 | 61:29.09 | 5:03.60 | 276684 | 299468

Range status and errors

Selected range

Filename C:\Armand Amar - Home.wav

Peak level 97.7 % Range quality 100.0 % Copy CRC 7643ED08 Copy OK

No errors occurred

End of status report


Трекер:  [ 21-Дек-2010 14:53 ]

  

Скачать .torrent

Размер .torrent файла 12 KB


Размер: 302 MB
Хэш (hash) релиза: bbc959cd1188465713ba71a9b9a9488c4538b258

Торренты, похожие на Дом: Свидание с планетой Home скачать торрент

Форум Название Автор Размер S L Добавлен
Саундтреки к фильмам и мультфильмам (mp3) ·· (Score) Дом - Свидание с планетой / Home [Armand Amar] (Complete Edition) - 2009, MP3 (tracks), 320 kbps Galfimbul 159849056152 MB 0 0 1292265561

21:39

13-Дек-10

bot

Топик был перенесен в форум Саундтреки к фильмам и мультфильмам (lossless)

Перенес AqvaGen

Хотите добавить комментарий к записи скачать торрент Дом: Свидание с планетой Home

!Обратная связь