Скачать через торрент музыку Vladimir Cosma - O.S.T. - Le Grand Blond Avec Une Chaussure Noire Le Retour Du Grand Blond бесплатно без регистрации torrent

Статистика раздачи
Размер:  292 MB   |    Зарегистрирован:  7 лет 1 месяц   |    .torrent скачан:  63 раза   |   
Раздают:  1  
   
загрузка...
 
Автор Сообщение

Galfimbul

avatar Galfimbul


Vladimir Cosma - O.S.T. - Le Grand Blond Avec Une Chaussure Noire / Le Retour Du Grand Blond (Высокий блондин в чёрном ботинке / Возвращение высокого блондина)

Жанр: Soundtrack
Год выпуска диска: 20..
Производитель диска: France
Аудио кодек: FLAC
Тип рипа: image+.cue
Битрейт аудио: lossless
Продолжительность: 53.07 min.
Трэклист:


Le Grand Blond Avec Une Chaussure Noire

01 Sirba - 2.03
02 Doina - 3.15
03 Mozart Massacre - 2.50
04 La Femme Revee - 3.20
05 Bela's Blues - 2.05
06 Babouchka - 2.00
07 Le Grand Blond - 2.22

Le Retour Du Grand Blond

08 Sapato Rosa - 2.40
09 Nai, Nai, Nai - 2.34
10 Blackfinger - 1.58
11 Allo Samba - 2.15
12 Florea Soarelui - 3.07
13 Espionissima - 1.41
14 Batucada Feijoada - 2.48
15 Christine - 4.05
16 Gymkana - 2.34
17 Bossa Des Tueurs - 3.10
18 La Grande Blonde - 2.22
19 Les Brahms M'en Tombent - 2.20
20 Sirba (Le Retour...) - 2.06

Доп. информация: Серийный сборник, включающий музыку Косма к дилогии с участием П.Ришара: "Высокий блондин в чёрном ботинке" и "Возвращение высокого блондина". Рип с оригинала, все сканы вложены.
Exact Audio Copy V0.99 prebeta 3 from 28. July 2007

Отчёт EAC об извлечении, выполненном 14. ноября 2008, 19:41

Various / Le Grand Blond Avec Une Chaussure Noire

Дисковод: HL-DT-STDVDRAM GSA-E40N Adapter: 2 ID: 0

Режим чтения : Достоверность
Использование точного потока : Да
Отключение кэша аудио : Да
Использование указателей C2 : Нет

Коррекция смещения при чтении : 667
Способность читать области Lead-in и Lead-out : Нет
Заполнение пропущенных сэмплов тишиной : Да
Удаление блоков с тишиной в начале и конце : Нет
При вычислениях CRC использовались нулевые сэмплы : Да
Интерфейс : Встроенный Win32-интерфейс для Win NT/2000

Выходной формат : Пользовательский кодировщик
Выбранный битрейт : 768 kBit/s
Качество : Высокий
Добавление ID3-тэга : Нет
Утилита сжатия : C:\Program Files\Exact Audio Copy\FLAC\FLAC.EXE
Дополнительные параметры : -6 -V -T "ARTIST=%a" -T "TITLE=%t" -T "ALBUM=%g" -T "DATE=%y" -T "TRACKNUMBER=%n" -T "GENRE=%m" -T "COMMENT=%e" %s -o %d

TOC извлечённого CD

Трек | Старт | Длительность | Начальный сектор | Конечный сектор
---------------------------------------------------------------------
1 | 0:00.32 | 2:06.25 | 32 | 9506
2 | 2:06.57 | 3:17.63 | 9507 | 24344
3 | 5:24.45 | 2:53.05 | 24345 | 37324
4 | 8:17.50 | 3:23.65 | 37325 | 52614
5 | 11:41.40 | 2:11.62 | 52615 | 62501
6 | 13:53.27 | 2:05.03 | 62502 | 71879
7 | 15:58.30 | 2:24.30 | 71880 | 82709
8 | 18:22.60 | 2:42.60 | 82710 | 94919
9 | 21:05.45 | 2:39.52 | 94920 | 106896
10 | 23:45.22 | 2:01.58 | 106897 | 116029
11 | 25:47.05 | 2:20.15 | 116030 | 126544
12 | 28:07.20 | 3:07.47 | 126545 | 140616
13 | 31:14.67 | 2:08.63 | 140617 | 150279
14 | 33:23.55 | 2:49.72 | 150280 | 163026
15 | 36:13.52 | 4:04.70 | 163027 | 181396
16 | 40:18.47 | 2:37.58 | 181397 | 193229
17 | 42:56.30 | 3:14.35 | 193230 | 207814
18 | 46:10.65 | 2:25.25 | 207815 | 218714
19 | 48:36.15 | 2:22.22 | 218715 | 229386
20 | 50:58.37 | 2:06.70 | 229387 | 238906

Характеристики диапазона извлечения и сообщения об ошибках

Выбранный диапазон

Имя файла D:\Музыка\Torrents\Vladimir Cosma - Le Grand Blond 1 & 2\Various - Le Grand Blond Avec Une Chaussure Noire.wav

Пиковый уровень 99.9 %
Качество диапазона 100.0 %
CRC копии 401A491D
Копирование... OK

Ошибок не произошло

Конец отчёта


Трекер:  [ 07-Июл-2011 22:46 ]

  

Скачать .torrent

Размер .torrent файла 12 KB


Размер: 292 MB
Хэш (hash) релиза: c0a79185f89a97cda47bf5ffde5f999b19ef7914

Еще никто не оставлял запись к записи скачать торрент Vladimir Cosma - O.S.T. - Le Grand Blond Avec Une Chaussure Noire Le Retour Du Grand Blond . Будь первым!

!Обратная связь