Скачать через торрент музыку Jocelyn Pook & VA - Eyes Wide Shut С широко закрытыми глазами - 1999, FLAC бесплатно без регистрации torrent

Статистика раздачи
Размер:  281 MB   |    Зарегистрирован:  7 лет 4 месяца   |    .torrent скачан:  59 раз   |   
Раздают:  1  
   
загрузка...
 
Автор Сообщение

Galfimbul

avatar Galfimbul


Jocelyn Pook & Various Artists - Eyes Wide Shut / С широко закрытыми глазами

Жанр: Soundtrack
Год выпуска диска: 1999
Производитель диска: Germany
Аудио кодек: FLAC
Тип рипа: image+.cue
Битрейт аудио: lossless
Продолжительность: 57:49

Трэклист:
1. Dominic Harlan - Musica Ricercata, II (Mesto, rigido e cerimoniale)
2. Royal Concertgebouw Orchestra - Waltz 2 from Jazz Suite
3. Chris Isaak - Baby Did A Bad Bad Thing
4. The Victor Silvester Orchestra - When I Fall In Love
5. The Oscar Peterson Trio - I Got It Bad (And That Ain't Good)
6. Jocelyn Pook - Naval Officer
7. Jocelyn Pook - The Dream
8. Jocelyn Pook - Masked Ball
9. Jocelyn Pook and the Jocelyn Pook Ensemble with Manickam Yogeswaran - Migrations
10. Roy Gerson - If I Had You
11. Peter Hughes Orchestra - Strangers In The Night
12. Brad Mehldau - Blame It On My Youth
13. Dominic Harlan - Grey Clouds
14. Dominic Harlan - Musica Ricercata, II (Mesto, rigido e cerimoniale) Reprise
 
Exact Audio Copy V0.99 prebeta 4 from 23. January 2008

EAC extraction logfile from 4. January 2009, 21:23

Various / Eyes wide shut

Used drive : HL-DT-STDVDRAM_GSA-T20N Adapter: 0 ID: 0

Read mode : SecureUtilize accurate stream : YesDefeat audio cache : YesMake use of C2 pointers : No

Read offset correction : 667Overread into Lead-In and Lead-Out : NoFill up missing offset samples with silence : YesDelete leading and trailing silent blocks : NoNull samples used in CRC calculations : YesUsed interface : Native Win32 interface for Win NT & 2000

Used output format : User Defined EncoderSelected bitrate : 768 kBit/sQuality : HighAdd ID3 tag : NoCommand line compressor : C:\Program Files\Exact Audio Copy\FLAC\FLAC.EXEAdditional command line options : -6 -V -T "ARTIST=%a" -T "TITLE=%t" -T "ALBUM=%g" -T "DATE=%y" -T "TRACKNUMBER=%n" -T "GENRE=%m" -T "COMMENT=%e" %s -o %d

TOC of the extracted CD

Track | Start | Length | Start sector | End sector --------------------------------------------------------- 1 | 0:00.00 | 4:17.50 | 0 | 19324 2 | 4:17.50 | 3:41.15 | 19325 | 35914 3 | 7:58.65 | 2:54.40 | 35915 | 49004 4 | 10:53.30 | 3:00.30 | 49005 | 62534 5 | 13:53.60 | 3:11.42 | 62535 | 76901 6 | 17:05.27 | 4:51.53 | 76902 | 98779 7 | 21:57.05 | 4:57.30 | 98780 | 121084 8 | 26:54.35 | 3:42.50 | 121085 | 137784 9 | 30:37.10 | 3:44.47 | 137785 | 154631 10 | 34:21.57 | 7:01.25 | 154632 | 186231 11 | 41:23.07 | 2:31.33 | 186232 | 197589 12 | 43:54.40 | 6:17.05 | 197590 | 225869 13 | 50:11.45 | 3:19.30 | 225870 | 240824 14 | 53:31.00 | 4:17.47 | 240825 | 260146

Range status and errors

Selected range

Filename C:\Torrent\Various - Eyes wide shut.wav

Peak level 100.0 % Range quality 100.0 % Test CRC AA8DCF9B Copy CRC AA8DCF9B Copy OK

No errors occurred

AccurateRip summary

Track 1 accurately ripped (confidence 16) [17150B97]Track 2 accurately ripped (confidence 16) [2462769F]Track 3 accurately ripped (confidence 16) [F20E1440]Track 4 accurately ripped (confidence 15) [AB43473E]Track 5 accurately ripped (confidence 15) [9B7373FA]Track 6 accurately ripped (confidence 15) [246E3422]Track 7 accurately ripped (confidence 15) [F54F692C]Track 8 accurately ripped (confidence 16) [BEF41FCA]Track 9 accurately ripped (confidence 16) [1E96993A]Track 10 accurately ripped (confidence 16) [C4E2B4B0]Track 11 accurately ripped (confidence 15) [1802E65B]Track 12 accurately ripped (confidence 14) [2BAB59F9]Track 13 accurately ripped (confidence 14) [156E2A63]Track 14 accurately ripped (confidence 15) [30AF1876]

All tracks accurately ripped

End of status report


Трекер:  [ 07-Июл-2011 22:45 ]

  

Скачать .torrent

Размер .torrent файла 11 KB


Размер: 281 MB
Хэш (hash) релиза: efb8798c853c0a53c696eb24d8a62efa0079c006

Торренты, похожие на Jocelyn Pook & VA - Eyes Wide Shut С широко закрытыми глазами - 1999, FLAC скачать торрент

Форум Название Автор Размер S L Добавлен
Саундтреки ·· (Soundtrack / Score) С широко закрытыми глазами / Eyes Wide Shut (by Jocelyn Pook & VA) - 1999, FLAC (tracks+.cue), lossless Umakiro 364028792347 MB 0 0 1332246660

15:31

20-Мар-12

Еще никто не оставлял запись к записи скачать торрент Jocelyn Pook & VA - Eyes Wide Shut С широко закрытыми глазами - 1999, FLAC . Будь первым!

!Обратная связь