Скачать через торрент музыку Vicky Cristina Barcelona Вики Кристина Барселона - 2008, APE бесплатно без регистрации torrent

Статистика раздачи
Размер:  238 MB   |    Зарегистрирован:  7 лет 4 месяца   |    .torrent скачан:  65 раз   |   
Раздают:  1  
   
загрузка...
 
Автор Сообщение

Galfimbul

avatar Galfimbul


Vicky Cristina Barcelona / Вики Кристина Барселона

Жанр: Soundtrack
Год выпуска диска: 2008
Производитель диска: USA
Аудио кодек: APE
Тип рипа: image + .cue
Битрейт аудио: lossless
Продолжительность: 42:50
Трэклист:
1. Barcelona Giulia y Los Tellarini (2:22)
2. Gorrion Juan Serrano (3:05)
3. Entre Dos Aguas Paco De Lucia (6:00)
4. El Noi De La Mare Jean-Felix Lalanne, Muriel Anderson (2:49)
5. Granada Emilio de Benito (1:53)
6. La Ley Del Retiro Giulia y Los Tellarini (2:14)
7. When I Was A Boy Biel Ballester Trio, Graci Pedro, Leo Hipaucha (3:13)
8. Big Brother The Stephane Wrembel Trio (5:07)
9. Asturias Juan Quesada (7:50)
10. Your Shining Eyes Biel Ballester Trio, Graci Pedro, Leo Hipaucha (4:30)
11. Entre Olas Juan Serrano (3:47)

Доп. информация: HQ-сканы внутри
Exact Audio Copy V0.99 prebeta 5 from 4. May 2009

EAC extraction logfile from 1. June 2009, 22:43

Various / Vicky Cristina Barcelona

Used drive : PLEXTOR CD-R PREMIUM2 Adapter: 1 ID: 0

Read mode : Secure
Utilize accurate stream : Yes
Defeat audio cache : Yes
Make use of C2 pointers : No

Read offset correction : 30
Overread into Lead-In and Lead-Out : Yes
Fill up missing offset samples with silence : Yes
Delete leading and trailing silent blocks : No
Null samples used in CRC calculations : Yes
Used interface : Installed external ASPI interface

Used output format : Internal WAV Routines
Sample format : 44.100 Hz; 16 Bit; Stereo

TOC of the extracted CD

Track | Start | Length | Start sector | End sector
---------------------------------------------------------
1 | 0:00.00 | 2:22.65 | 0 | 10714
2 | 2:22.65 | 3:05.65 | 10715 | 24654
3 | 5:28.55 | 6:00.30 | 24655 | 51684
4 | 11:29.10 | 2:48.73 | 51685 | 64357
5 | 14:18.08 | 1:53.57 | 64358 | 72889
6 | 16:11.65 | 2:14.26 | 72890 | 82965
7 | 18:26.16 | 3:13.47 | 82966 | 97487
8 | 21:39.63 | 5:07.62 | 97488 | 120574
9 | 26:47.50 | 7:50.18 | 120575 | 155842
10 | 34:37.68 | 4:30.22 | 155843 | 176114
11 | 39:08.15 | 3:47.09 | 176115 | 193148

Range status and errors

Selected range

Filename D:\MUZA\tadeo\Various - Vicky Cristina Barcelona.wav

Peak level 98.9 %
Range quality 100.0 %
Copy CRC 6C377E76
Copy OK

No errors occurred

AccurateRip summary

Track 1 accurately ripped (confidence 3) [DF40D299]
Track 2 accurately ripped (confidence 3) [05F6A3D8]
Track 3 accurately ripped (confidence 3) [FD66A099]
Track 4 accurately ripped (confidence 3) [7E8734DC]
Track 5 accurately ripped (confidence 3) [40174BFD]
Track 6 accurately ripped (confidence 3) [B5BE58EE]
Track 7 accurately ripped (confidence 3) [66EBAD62]
Track 8 accurately ripped (confidence 3) [18A3272D]
Track 9 accurately ripped (confidence 3) [4962BC18]
Track 10 accurately ripped (confidence 3) [CE78CE8C]
Track 11 accurately ripped (confidence 3) [5CCCB620]

All tracks accurately ripped

End of status report


Трекер:  [ 07-Июл-2011 22:45 ]

  

Скачать .torrent

Размер .torrent файла 20 KB


Размер: 238 MB
Хэш (hash) релиза: 5426121c24b9cb2598cd04f706c365bd087a7e14

Еще никто не оставлял запись к записи скачать торрент Vicky Cristina Barcelona Вики Кристина Барселона - 2008, APE . Будь первым!

!Обратная связь