Скачать через торрент музыку Ванильное небо Vanilla Sky - 2001, FLAC бесплатно без регистрации torrent

Статистика раздачи
Размер:  469 MB   |    Зарегистрирован:  7 лет 4 месяца   |    .torrent скачан:  50 раз   |   
Раздают:  1  
   
загрузка...
 
Автор Сообщение

Galfimbul

avatar Galfimbul


Ванильное небо / Vanilla Sky

Жанр: Soundtrack
Год выпуска диска: 2001
Производитель диска: USA
Аудио кодек: FLAC
Тип рипа: image+.cue
Битрейт аудио: lossless
Продолжительность: 1:13:55
Трэклист:
1. All The Right Friends - R.E.M.
2. Everything In Its Right Place - Radiohead
3. Vanilla Sky - Paul McCartney
4. Solsbury Hill - Peter Gabriel
5. I Fall Apart - Julianna Gianni
6. Porpoise Song (Theme From 'Head') - The Monkees
7. Mondo '77 - Looper
8. Have You Forgotten - Red House Painters
9. Directions - Josh Rouse
10. Afrika Shox - Leftfield
11. Svefn-g-englar - Sigur Ros
12. Last Goodbye - Jeff Buckley
13. Can We Still Be Friends - Todd Rundgren
14. Fourth Time Around - Bob Dylan
15. Elevator Beat - Nancy Wilson
16. Sweetness Follows - R.E.M.
17. Where Do I Begin - The Chemical Brothers
Exact Audio Copy V0.99 prebeta 4 from 23. January 2008

Отчёт EAC об извлечении, выполненном 10. сентября 2008, 18:54

Various / Vanilla Sky

Дисковод: Optiarc DVD RW AD-7170A Adapter: 3 ID: 0

Режим чтения : Достоверность
Использование точного потока : Да
Отключение кэша аудио : Да
Использование указателей C2 : Нет

Коррекция смещения при чтении : 48
Способность читать области Lead-in и Lead-out : Нет
Заполнение пропущенных сэмплов тишиной : Да
Удаление блоков с тишиной в начале и конце : Нет
При вычислениях CRC использовались нулевые сэмплы : Да
Интерфейс : Установленный внешний ASPI-интерфейс

Выходной формат : Внутренние WAV-операции
Формат сэмплов : 44.100 Гц; 16 бит; стерео

TOC извлечённого CD

Трек | Старт | Длительность | Начальный сектор | Конечный сектор
---------------------------------------------------------------------
1 | 0:00.00 | 2:46.05 | 0 | 12454
2 | 2:46.05 | 4:09.42 | 12455 | 31171
3 | 6:55.47 | 2:46.35 | 31172 | 43656
4 | 9:42.07 | 4:23.60 | 43657 | 63441
5 | 14:05.67 | 3:52.30 | 63442 | 80871
6 | 17:58.22 | 2:52.70 | 80872 | 93841
7 | 20:51.17 | 4:53.65 | 93842 | 115881
8 | 25:45.07 | 5:28.68 | 115882 | 140549
9 | 31:14.00 | 3:24.57 | 140550 | 155906
10 | 34:38.57 | 3:44.35 | 155907 | 172741
11 | 38:23.17 | 9:15.48 | 172742 | 214414
12 | 47:38.65 | 4:33.12 | 214415 | 234901
13 | 52:12.02 | 3:34.10 | 234902 | 250961
14 | 55:46.12 | 4:35.70 | 250962 | 271656
15 | 60:22.07 | 2:44.05 | 271657 | 283961
16 | 63:06.12 | 4:19.68 | 283962 | 303454
17 | 67:26.05 | 6:29.24 | 303455 | 332653

Характеристики диапазона извлечения и сообщения об ошибках

Выбранный диапазон

Имя файла D:\Music\Soundtracks\Vanilla Sky Image+.cue\Various - Vanilla Sky.wav

Пиковый уровень 99.9 %
Качество диапазона 99.9 %
CRC копии 3B385853
Копирование... OK

Ошибок не произошло

Конец отчёта


Трекер:  [ 07-Июл-2011 22:45 ]

  

Скачать .torrent

Размер .torrent файла 37 KB


Размер: 469 MB
Хэш (hash) релиза: e7b212d404de2b8fd6134c4f6c77503114ec893b

Еще никто не оставлял запись к записи скачать торрент Ванильное небо Vanilla Sky - 2001, FLAC . Будь первым!

!Обратная связь