Скачать через торрент музыку Matrix Trilogy бесплатно без регистрации torrent

Статистика раздачи
Размер:  2.63 GB   |    Зарегистрирован:  7 лет 4 месяца   |    .torrent скачан:  111 раз   |   
Раздают:  1  
   
загрузка...
 
Автор Сообщение

Galfimbul

avatar Galfimbul


Matrix Trilogy Soundtrack + Score

Страна: США
Жанр: Саундтрэк Soundtrack + Score
Формат: FLAC (image + .cue)
Битрейт аудио: lossless
Продолжительность: 9CD
Трэклист:
1999 - The Matrix
1999 - The Matrix (Score)
2003 - The Matrix Reloaded 2CD
2003 - The Matrix Reloaded (Score) 2CD
2003 - The Matrix Revolutions
2003 - The Matrix Revolutions (Score) 2CD
Год выпуска: 1999
Продолжительность: 1:03:02
Трэклист:

01. Marilyn Manson - Rock Is Dead (3:11)
02. Propellerheads - Spybreak! (Short One) (4:01)
03. Ministry - Bad Blood (5:00)
04. Rob D - Clubbed To Death (Kurayamino mix) (7:26)
05. Meat Beat Manifesto - Prime Audio Soup (6:17)
06. Lunatic Calm - Leave You Far Behind (3:13)
07. The Prodigy - Mindfields (5:41)
08. Rob Zombie - Dragula (Hot Rod Herman remix) (4:37)
09. Deftones - My Own Summer (Shove It) (3:35)
10. Hive - Ultrasonic Sound (4:54)
11. Monster Magnet - Look To Your Orb For The Warning (4:43)
12. Rammstein - Du Hast (3:55)
13. Rage Against The Machine - Wake Up (6:04)
Exact Audio Copy V0.99 prebeta 3 from 28. July 2007

Отчёт EAC об извлечении, выполненном 12. февраля 2008, 11:16

The Soundtrack / Matrix (ost)

Дисковод: MATSHITAUJDA755 DVD/CDRW Adapter: 1 ID: 0

Режим чтения : Достоверность
Использование точного потока : Да
Отключение кэша аудио : Да
Использование указателей C2 : Нет

Комбинированное смещение чтения/записи : 102
Способность читать области Lead-in и Lead-out : Нет
Заполнение пропущенных сэмплов тишиной : Да
Удаление блоков с тишиной в начале и конце : Нет
При вычислениях CRC использовались нулевые сэмплы : Нет
Интерфейс : Встроенный Win32-интерфейс для Win NT/2000

Выходной формат : Внутренние WAV-операции
Формат сэмплов : 44.100 Гц; 16 бит; стерео

TOC извлечённого CD

Трек | Старт | Длительность | Начальный сектор | Конечный сектор
---------------------------------------------------------------------
1 | 0:00.00 | 3:13.14 | 0 | 14488
2 | 3:13.14 | 4:02.37 | 14489 | 32675
3 | 7:15.51 | 5:02.30 | 32676 | 55355
4 | 12:18.06 | 7:28.14 | 55356 | 88969
5 | 19:46.20 | 6:19.20 | 88970 | 117414
6 | 26:05.40 | 3:15.24 | 117415 | 132063
7 | 29:20.64 | 5:42.52 | 132064 | 157765
8 | 35:03.41 | 4:39.00 | 157766 | 178690
9 | 39:42.41 | 3:36.48 | 178691 | 194938
10 | 43:19.14 | 4:56.24 | 194939 | 217162
11 | 48:15.38 | 4:44.72 | 217163 | 238534
12 | 53:00.35 | 3:56.67 | 238535 | 256301
13 | 56:57.27 | 6:03.45 | 256302 | 283571

Характеристики диапазона извлечения и сообщения об ошибках

Выбранный диапазон

Имя файла C:\lossless\The Soundtrack - Matrix (ost).wav

Пиковый уровень 100.0 %
Качество диапазона 99.9 %
CRC копии 3FAEFB66
Копирование... OK

Ошибок не произошло

Конец отчёта
Год выпуска: 1999
Продолжительность: 30:11
Трэклист:

01. Main Title / Trinity Infinity (3:55)
02. Unable To Speak (1:15)
03. The Power Plant (2:42)
04. Welcome To The Real World (2:28)
05. The Hotel Ambush (5:23)
06. Exit Mr. Hat (1:23)
07. A Virus (1:33)
08. Bullet-time (1:11)
09. Ontological Shock (3:33)
10. Anything Is Possible (6:49)
Exact Audio Copy V0.99 prebeta 3 from 28. July 2007

Отчёт EAC об извлечении, выполненном 25. октября 2008, 11:16

Don Davis / The Matrix - Original Motion Picture Score

Дисковод: NEC - DVD_RW ND-3550 Adapter: 1 ID: 0

Режим чтения : Достоверность
Использование точного потока : Да
Отключение кэша аудио : Да
Использование указателей C2 : Нет

Комбинированное смещение чтения/записи : 48
Способность читать области Lead-in и Lead-out : Нет
Заполнение пропущенных сэмплов тишиной : Да
Удаление блоков с тишиной в начале и конце : Нет
При вычислениях CRC использовались нулевые сэмплы : Нет
Интерфейс : Встроенный Win32-интерфейс для Win NT/2000

Выходной формат : Внутренние WAV-операции
Формат сэмплов : 44.100 Гц; 16 бит; стерео

TOC извлечённого CD

Трек | Старт | Длительность | Начальный сектор | Конечный сектор
---------------------------------------------------------------------
1 | 0:00.00 | 3:54.67 | 0 | 17616
2 | 3:54.67 | 1:15.00 | 17617 | 23241
3 | 5:09.67 | 2:41.60 | 23242 | 35376
4 | 7:51.52 | 2:28.03 | 35377 | 46479
5 | 10:19.55 | 5:23.05 | 46480 | 70709
6 | 15:42.60 | 1:23.10 | 70710 | 76944
7 | 17:05.70 | 1:33.00 | 76945 | 83919
8 | 18:38.70 | 1:10.42 | 83920 | 89211
9 | 19:49.37 | 3:32.65 | 89212 | 105176
10 | 23:22.27 | 6:48.58 | 105177 | 135834

Характеристики диапазона извлечения и сообщения об ошибках

Выбранный диапазон

Имя файла F:\Music\Don Davis - The Matrix - Original Motion Picture Score.wav

Пиковый уровень 96.8 %
Качество диапазона 99.8 %
CRC копии 40401081
Копирование... OK

Ошибок не произошло

Конец отчёта
Год выпуска: 2003
Продолжительность: 1:30:52
Трэклист:

CD1
01. Linkin Park - Session
02. Marilyn Manson - This Is the New Shit
03. Rob Zombie - Reload
04. Rob Dougan - Furious Angels
05. Deftones - Lucky You
06. Team Sleep - The Passportal
07. P.O.D. - Sleeping Awake
08. Unloco - Bruises
09. Rage Against the Machine - Calm Like a Bomb
10. Paul Oakenfold - Dread Rock
11. Fluke - Zion
12. Dave Matthews Band - When the World Ends (Oakenfold Remix)

CD2
01. Don Davis - Main Title
02. Don Davis - Trinity Dream
03. Juno Reactor - Teahouse
04. Rob Dougan - Chateau
05. Juno Reactor - Mona Lisa Overdrive
06. Juno Reactor vs. Don Davis - Burly Brawl
07. Don Davis - Matrix Reloaded Suite
Exact Audio Copy V0.99 prebeta 4 from 23. January 2008

Отчёт EAC об извлечении, выполненном 30. октября 2008, 10:36

Various / The Matrix Reloaded (1 of 2) [ST]

Дисковод: _NEC DVD_RW ND-2500A Adapter: 0 ID: 0

Режим чтения : Достоверность
Использование точного потока : Да
Отключение кэша аудио : Да
Использование указателей C2 : Нет

Коррекция смещения при чтении : 48
Способность читать области Lead-in и Lead-out : Нет
Заполнение пропущенных сэмплов тишиной : Да
Удаление блоков с тишиной в начале и конце : Нет
При вычислениях CRC использовались нулевые сэмплы : Да
Интерфейс : Встроенный Win32-интерфейс для Win NT/2000

Выходной формат : Внутренние WAV-операции
Формат сэмплов : 44.100 Гц; 16 бит; стерео

TOC извлечённого CD

Трек | Старт | Длительность | Начальный сектор | Конечный сектор
---------------------------------------------------------------------
1 | 0:00.00 | 2:23.60 | 0 | 10784
2 | 2:23.60 | 4:20.22 | 10785 | 30306
3 | 6:44.07 | 4:25.10 | 30307 | 50191
4 | 11:09.17 | 5:29.70 | 50192 | 74936
5 | 16:39.12 | 4:08.05 | 74937 | 93541
6 | 20:47.17 | 2:55.60 | 93542 | 106726
7 | 23:43.02 | 3:23.18 | 106727 | 121969
8 | 27:06.20 | 2:36.12 | 121970 | 133681
9 | 29:42.32 | 4:58.53 | 133682 | 156084
10 | 34:41.10 | 4:40.00 | 156085 | 177084
11 | 39:21.10 | 4:33.35 | 177085 | 197594
12 | 43:54.45 | 5:26.65 | 197595 | 222109

Характеристики диапазона извлечения и сообщения об ошибках

Выбранный диапазон

Имя файла F:\Music\Various - The Matrix Reloaded (1 of 2) [ST].wav

Пиковый уровень 100.0 %
Качество диапазона 99.6 %
CRC копии 720DE7F8
Копирование... OK

Ошибок не произошло

Конец отчёта
Exact Audio Copy V0.99 prebeta 4 from 23. January 2008

Отчёт EAC об извлечении, выполненном 30. октября 2008, 13:43

Various / The Matrix Reloaded (2 of 2) [ST]

Дисковод: _NEC DVD_RW ND-2500A Adapter: 0 ID: 0

Режим чтения : Достоверность
Использование точного потока : Да
Отключение кэша аудио : Да
Использование указателей C2 : Нет

Коррекция смещения при чтении : 48
Способность читать области Lead-in и Lead-out : Нет
Заполнение пропущенных сэмплов тишиной : Да
Удаление блоков с тишиной в начале и конце : Нет
При вычислениях CRC использовались нулевые сэмплы : Да
Интерфейс : Встроенный Win32-интерфейс для Win NT/2000

Выходной формат : Внутренние WAV-операции
Формат сэмплов : 44.100 Гц; 16 бит; стерео

TOC извлечённого CD

Трек | Старт | Длительность | Начальный сектор | Конечный сектор
---------------------------------------------------------------------
1 | 0:00.00 | 1:30.05 | 0 | 6754
2 | 1:30.05 | 1:56.60 | 6755 | 15514
3 | 3:26.65 | 1:04.45 | 15515 | 20359
4 | 4:31.35 | 3:23.62 | 20360 | 35646
5 | 7:55.22 | 10:08.70 | 35647 | 81316
6 | 18:04.17 | 5:52.10 | 81317 | 107726
7 | 23:56.27 | 17:34.73 | 107727 | 186849
8 | 44:03.25 | 22:12.42 | 198250 | 298191

Характеристики диапазона извлечения и сообщения об ошибках

Выбранный диапазон

Имя файла F:\Music\Various - The Matrix Reloaded (2 of 2) [ST].wav

Пиковый уровень 98.8 %
Качество диапазона 100.0 %
CRC копии 80C495FB
Копирование... OK

Ошибок не произошло

Конец отчёта
Год выпуска: 2003
Продолжительность: 1:57:16
Трэклист:

CD1
1. Don Davis - Main Title
2. Don Davis - Trinity Dream
3. Don Davis - Enter The Nebuchadnezzar
4. Don Davis - Smith At The Door
5. Don Davis - Furious Angels [by Rob Dougan]
6. Don Davis - Smith vs. Smith
7. Don Davis - Free Flight
8. Don Davis - Wonder Of Zion
9. Don Davis - The Lavscivious Lift
10. Don Davis - Link And Zee
11. Don Davis - Morpheous On The Mount
12. Don Davis - Goodbye Zion
13. Don Davis - The Bane Transformation
14. Don Davis - First, I Must Apologize
15. Don Davis - Teahouse [by Juno Reactor Feat. Gocoo]
16. Don Davis - The Industrial Highway
17. Don Davis - Oracle Oratory
18. Don Davis - Purpose That Created Us
19. Don Davis - Burly Brawl [by Juno Reactor]
20. Don Davis - Burly Brawl [Alternate]
21. Don Davis - Multiple Replication
22. Don Davis - The Council Of Cool
23. Don Davis - Meeting Merovingian
24. Don Davis - Niaiserie
25. Don Davis - Choise Is An Illusion
26. Don Davis - Sample This

CD2
1. Don Davis - Meet the Keymaker
2. Don Davis - Some Skill
3. Don Davis - Chateau [by Rob Dougan]
4. Don Davis - Chateau Swashbuckling [Unused]
5. Don Davis - Double Trouble
6. Don Davis - Mona Lisa Overdrive [by Juno Reactor]
7. Don Davis - Truck vs. Truck
8. Don Davis - The Plan
9. Don Davis - Final Flight Of The Vigilant
10. Don Davis - Kill The Keymaker
11. Don Davis - Doddering Old Fool
12. Don Davis - The Problem Is Choice
13. Don Davis - Window Switch
14. Don Davis - Neo Miraculous
15. Don Davis - No More Nebuchadnezzar
16. Don Davis - Contusion Conclusion
Exact Audio Copy V0.99 prebeta 4 from 23. January 2008

Отчёт EAC об извлечении, выполненном 27. декабря 2008, 1:46

Don Davis / The Matrix Reloaded #1

Дисковод: NEC - DVD_RW ND-3550 Adapter: 1 ID: 0

Режим чтения : Достоверность
Использование точного потока : Да
Отключение кэша аудио : Да
Использование указателей C2 : Нет

Комбинированное смещение чтения/записи : 48
Способность читать области Lead-in и Lead-out : Нет
Заполнение пропущенных сэмплов тишиной : Да
Удаление блоков с тишиной в начале и конце : Нет
При вычислениях CRC использовались нулевые сэмплы : Нет
Интерфейс : Встроенный Win32-интерфейс для Win NT/2000

Выходной формат : Внутренние WAV-операции
Формат сэмплов : 44.100 Гц; 16 бит; стерео

TOC извлечённого CD

Трек | Старт | Длительность | Начальный сектор | Конечный сектор
---------------------------------------------------------------------
1 | 0:00.00 | 1:32.22 | 0 | 6921
2 | 1:32.22 | 1:59.27 | 6922 | 15873
3 | 3:31.49 | 1:11.22 | 15874 | 21220
4 | 4:42.71 | 4:17.12 | 21221 | 40507
5 | 9:00.08 | 5:32.14 | 40508 | 65421
6 | 14:32.22 | 0:39.09 | 65422 | 68355
7 | 15:11.31 | 3:11.72 | 68356 | 82752
8 | 18:23.28 | 1:22.73 | 82753 | 88975
9 | 19:46.26 | 1:13.27 | 88976 | 94477
10 | 20:59.53 | 2:15.34 | 94478 | 104636
11 | 23:15.12 | 0:54.04 | 104637 | 108690
12 | 24:09.16 | 1:08.22 | 108691 | 113812
13 | 25:17.38 | 1:13.15 | 113813 | 119302
14 | 26:30.53 | 1:11.34 | 119303 | 124661
15 | 27:42.12 | 1:06.64 | 124662 | 129675
16 | 28:49.01 | 1:16.35 | 129676 | 135410
17 | 30:05.36 | 2:06.60 | 135411 | 144920
18 | 32:12.21 | 3:07.44 | 144921 | 158989
19 | 35:19.65 | 5:54.29 | 158990 | 185568
20 | 41:14.19 | 1:33.18 | 185569 | 192561
21 | 42:47.37 | 4:29.03 | 192562 | 212739
22 | 47:16.40 | 2:06.27 | 212740 | 222216
23 | 49:22.67 | 1:47.28 | 222217 | 230269
24 | 51:10.20 | 6:01.15 | 230270 | 257359
25 | 57:11.35 | 2:41.27 | 257360 | 269461
26 | 59:52.62 | 3:51.47 | 269462 | 286833

Характеристики диапазона извлечения и сообщения об ошибках

Выбранный диапазон

Имя файла Z:\edit\саунд\Matrix Trilogy Soundtrack + Score\Don Davis - The Matrix Reloaded #1.wav

Пиковый уровень 100.0 %
Качество диапазона 100.0 %
CRC копии 2F834D72
Копирование... OK

Ошибок не произошло

Конец отчёта
Exact Audio Copy V0.99 prebeta 4 from 23. January 2008

Отчёт EAC об извлечении, выполненном 27. декабря 2008, 1:51

Don Davis / The Matrix Reloaded #2

Дисковод: NEC - DVD_RW ND-3550 Adapter: 1 ID: 0

Режим чтения : Достоверность
Использование точного потока : Да
Отключение кэша аудио : Да
Использование указателей C2 : Нет

Комбинированное смещение чтения/записи : 48
Способность читать области Lead-in и Lead-out : Нет
Заполнение пропущенных сэмплов тишиной : Да
Удаление блоков с тишиной в начале и конце : Нет
При вычислениях CRC использовались нулевые сэмплы : Нет
Интерфейс : Встроенный Win32-интерфейс для Win NT/2000

Выходной формат : Внутренние WAV-операции
Формат сэмплов : 44.100 Гц; 16 бит; стерео

TOC извлечённого CD

Трек | Старт | Длительность | Начальный сектор | Конечный сектор
---------------------------------------------------------------------
1 | 0:00.00 | 0:55.08 | 0 | 4132
2 | 0:55.08 | 0:45.15 | 4133 | 7522
3 | 1:40.23 | 3:26.07 | 7523 | 22979
4 | 5:06.30 | 3:49.43 | 22980 | 40197
5 | 8:55.73 | 2:22.54 | 40198 | 50901
6 | 11:18.52 | 10:11.15 | 50902 | 96741
7 | 21:29.67 | 4:26.28 | 96742 | 116719
8 | 25:56.20 | 4:17.69 | 116720 | 136063
9 | 30:14.14 | 3:00.56 | 136064 | 149619
10 | 33:14.70 | 3:04.74 | 149620 | 163493
11 | 36:19.69 | 0:47.63 | 163494 | 167081
12 | 37:07.57 | 3:14.09 | 167082 | 181640
13 | 40:21.66 | 4:09.69 | 181641 | 200384
14 | 44:31.60 | 3:37.61 | 200385 | 216720
15 | 48:09.46 | 4:02.28 | 216721 | 234898
16 | 52:11.74 | 1:16.01 | 234899 | 240599

Характеристики диапазона извлечения и сообщения об ошибках

Выбранный диапазон

Имя файла Z:\edit\саунд\Matrix Trilogy Soundtrack + Score\Don Davis - The Matrix Reloaded #2.wav

Пиковый уровень 100.0 %
Качество диапазона 100.0 %
CRC копии 8D2F8E33
Копирование... OK

Ошибок не произошло

Конец отчёта
Год выпуска: 2003
Продолжительность: 1:03:28
Трэклист:

1. Don Davis - The Matrix Revolutions Main Title
2. Juno Reactor & Don Davis - The Trainman Cometh
3. Juno Reactor & Don Davis - Tetsujin
4. Pale 3 - In My Head
5. Don Davis - The Road to Sourceville
6. Don Davis - Men in Metal
7. Don Davis - Niobe's Run
8. Don Davis - Woman Can Drive
9. Don Davis - Moribund Mifune
10. Don Davis - Kidfried
11. Don Davis - Saw Bitch Workhorse
12. Don Davis - Trinity Definitely
13. Don Davis - Neodämmerung
14. Don Davis - Why, Mr. Anderson?
15. Don Davis - Spirit of the Universe
16. Juno Reactor vs. Don Davis - Navras
Exact Audio Copy V0.99 prebeta 4 from 23. January 2008

Отчёт EAC об извлечении, выполненном 26. октября 2008, 22:55

Various / The Matrix Revolutions [OST]

Дисковод: NEC - DVD_RW ND-3550 Adapter: 1 ID: 0

Режим чтения : Достоверность
Использование точного потока : Да
Отключение кэша аудио : Да
Использование указателей C2 : Нет

Комбинированное смещение чтения/записи : 48
Способность читать области Lead-in и Lead-out : Нет
Заполнение пропущенных сэмплов тишиной : Да
Удаление блоков с тишиной в начале и конце : Нет
При вычислениях CRC использовались нулевые сэмплы : Нет
Интерфейс : Встроенный Win32-интерфейс для Win NT/2000

Выходной формат : Внутренние WAV-операции
Формат сэмплов : 44.100 Гц; 16 бит; стерео

TOC извлечённого CD

Трек | Старт | Длительность | Начальный сектор | Конечный сектор
---------------------------------------------------------------------
1 | 0:00.00 | 1:21.45 | 0 | 6119
2 | 1:21.45 | 2:43.15 | 6120 | 18359
3 | 4:04.60 | 3:21.10 | 18360 | 33444
4 | 7:25.70 | 3:46.17 | 33445 | 50411
5 | 11:12.12 | 1:25.15 | 50412 | 56801
6 | 12:37.27 | 2:18.05 | 56802 | 67156
7 | 14:55.32 | 2:48.43 | 67157 | 79799
8 | 17:44.00 | 2:41.57 | 79800 | 91931
9 | 20:25.57 | 3:47.53 | 91932 | 109009
10 | 24:13.35 | 4:49.60 | 109010 | 130744
11 | 29:03.20 | 3:59.12 | 130745 | 148681
12 | 33:02.32 | 4:15.25 | 148682 | 167831
13 | 37:17.57 | 5:59.43 | 167832 | 194799
14 | 43:17.25 | 6:10.67 | 194800 | 222616
15 | 49:28.17 | 4:51.00 | 222617 | 244441
16 | 54:19.17 | 9:08.65 | 244442 | 285606

Характеристики диапазона извлечения и сообщения об ошибках

Выбранный диапазон

Имя файла Z:\edit\music\Various - The Matrix Revolutions [OST].wav

Пиковый уровень 98.8 %
Качество диапазона 99.3 %
CRC копии 3C09C0AA
Копирование... OK

Ошибок не произошло

Конец отчёта
Год выпуска: 2003
Продолжительность: 1:49:40
Трэклист:

CD1
1. Don Davis - Logos/Main Title
2. Don Davis - Nothing But Blue Pills
3. Don Davis - Ak, Colt and Mauser
4. Don Davis - Our Lit Ovens
5. Don Davis - Oracle Debacle
6. Don Davis - The Trainman Cometh
7. Don Davis - The Trainman Goeth
8. Don Davis - Sin, Toil, Extra Vermouth
9. Don Davis - The Road to Hell
10. Don Davis - Time's Up
11. Don Davis - The Road to Sourceville
12. Don Davis - He Is You
13. Don Davis - The First Goodbye
14. Don Davis - The All Knowing Oracle
15. Don Davis - The Logo's Location
16. Don Davis - It's Crazy Zee
17. Don Davis - Das Banegold
18. Don Davis - The Bane Revelation
19. Don Davis - The Smith Within Us
20. Don Davis - Men in Metal
21. Don Davis - Niobe's Run
22. Don Davis - The Breach
23. Don Davis - Boom Hilda
24. Don Davis - Die Brunett Walkure

CD2
1. Don Davis - Mjolner Mastication
2. Don Davis - Charra Broiled
3. Don Davis - Woman Can Drive
4. Don Davis - Moribund Mifune
5. Don Davis - Kidfried
6. Don Davis - To Our Snivel
7. Don Davis - Neovision
8. Don Davis - Saw Bitch Workhorse
9. Don Davis - Trinity Definitely
10. Don Davis - Deus Ex machina
11. Don Davis - Neodдmmerung
12. Don Davis - Why, Mr. Anderson?
13. Don Davis - Spirit of the Universe
14. Don Davis - Bridge of Immortality
15. Don Davis - ForNeo
Exact Audio Copy V0.99 prebeta 4 from 23. January 2008

Отчёт EAC об извлечении, выполненном 27. декабря 2008, 1:57

Don Davis / THE MATRIX REVOLUTIONS (complete, Cd 1)

Дисковод: NEC - DVD_RW ND-3550 Adapter: 1 ID: 0

Режим чтения : Достоверность
Использование точного потока : Да
Отключение кэша аудио : Да
Использование указателей C2 : Нет

Комбинированное смещение чтения/записи : 48
Способность читать области Lead-in и Lead-out : Нет
Заполнение пропущенных сэмплов тишиной : Да
Удаление блоков с тишиной в начале и конце : Нет
При вычислениях CRC использовались нулевые сэмплы : Нет
Интерфейс : Встроенный Win32-интерфейс для Win NT/2000

Выходной формат : Внутренние WAV-операции
Формат сэмплов : 44.100 Гц; 16 бит; стерео

TOC извлечённого CD

Трек | Старт | Длительность | Начальный сектор | Конечный сектор
---------------------------------------------------------------------
1 | 0:00.00 | 1:21.25 | 0 | 6099
2 | 1:21.25 | 0:39.30 | 6100 | 9054
3 | 2:00.55 | 1:20.09 | 9055 | 15063
4 | 3:20.64 | 0:40.37 | 15064 | 18100
5 | 4:01.26 | 1:39.09 | 18101 | 25534
6 | 5:40.35 | 2:43.68 | 25535 | 37827
7 | 8:24.28 | 1:50.34 | 37828 | 46111
8 | 10:14.62 | 3:23.14 | 46112 | 61350
9 | 13:38.01 | 3:24.04 | 61351 | 76654
10 | 17:02.05 | 1:08.26 | 76655 | 81780
11 | 18:10.31 | 1:25.11 | 81781 | 88166
12 | 19:35.42 | 1:35.42 | 88167 | 95333
13 | 21:11.09 | 2:32.70 | 95334 | 106803
14 | 23:44.04 | 3:08.62 | 106804 | 120965
15 | 26:52.66 | 4:10.53 | 120966 | 139768
16 | 31:03.44 | 1:08.14 | 139769 | 144882
17 | 32:11.58 | 4:16.18 | 144883 | 164100
18 | 36:28.01 | 4:06.57 | 164101 | 182607
19 | 40:34.58 | 6:05.68 | 182608 | 210050
20 | 46:40.51 | 2:18.58 | 210051 | 220458
21 | 48:59.34 | 2:15.63 | 220459 | 230646
22 | 51:15.22 | 1:58.57 | 230647 | 239553
23 | 53:14.04 | 2:54.48 | 239554 | 252651
24 | 56:08.52 | 2:14.16 | 252652 | 262717

Характеристики диапазона извлечения и сообщения об ошибках

Выбранный диапазон

Имя файла Z:\edit\саунд\Matrix Trilogy Soundtrack + Score\Don Davis - THE MATRIX REVOLUTIONS (complete, Cd 1).wav

Пиковый уровень 100.0 %
Качество диапазона 100.0 %
CRC копии AFC4138D
Копирование... OK

Ошибок не произошло

Конец отчёта
Exact Audio Copy V0.99 prebeta 4 from 23. January 2008

Отчёт EAC об извлечении, выполненном 27. декабря 2008, 2:10

Don Davis / The Matrix Revolutions (Complete, CD 2)

Дисковод: NEC - DVD_RW ND-3550 Adapter: 1 ID: 0

Режим чтения : Достоверность
Использование точного потока : Да
Отключение кэша аудио : Да
Использование указателей C2 : Нет

Комбинированное смещение чтения/записи : 48
Способность читать области Lead-in и Lead-out : Нет
Заполнение пропущенных сэмплов тишиной : Да
Удаление блоков с тишиной в начале и конце : Нет
При вычислениях CRC использовались нулевые сэмплы : Нет
Интерфейс : Встроенный Win32-интерфейс для Win NT/2000

Выходной формат : Внутренние WAV-операции
Формат сэмплов : 44.100 Гц; 16 бит; стерео

TOC извлечённого CD

Трек | Старт | Длительность | Начальный сектор | Конечный сектор
---------------------------------------------------------------------
1 | 0:00.00 | 1:15.12 | 0 | 5636
2 | 1:15.12 | 1:32.40 | 5637 | 12576
3 | 2:47.52 | 2:44.10 | 12577 | 24886
4 | 5:31.62 | 3:53.09 | 24887 | 42370
5 | 9:24.71 | 4:53.53 | 42371 | 64398
6 | 14:18.49 | 1:31.15 | 64399 | 71238
7 | 15:49.64 | 3:21.13 | 71239 | 86326
8 | 19:11.02 | 4:04.21 | 86327 | 104647
9 | 23:15.23 | 4:14.57 | 104648 | 123754
10 | 27:30.05 | 5:06.57 | 123755 | 146761
11 | 32:36.62 | 5:59.50 | 146762 | 173736
12 | 38:36.37 | 3:29.11 | 173737 | 189422
13 | 42:05.48 | 3:50.40 | 189423 | 206712
14 | 45:56.13 | 2:26.34 | 206713 | 217696
15 | 48:22.47 | 2:54.42 | 217697 | 230788

Характеристики диапазона извлечения и сообщения об ошибках

Выбранный диапазон

Имя файла Z:\edit\саунд\Matrix Trilogy Soundtrack + Score\Don Davis - The Matrix Revolutions (Complete, CD 2).wav

Пиковый уровень 100.0 %
Качество диапазона 100.0 %
CRC копии A0A16E20
Копирование... OK

Ошибок не произошло

Конец отчёта


Трекер:  [ 07-Июл-2011 22:45 ]

  

Скачать .torrent

Размер .torrent файла 20 KB


Размер: 2.63 GB
Хэш (hash) релиза: 2d61c32893749c74e396f9b3b002487561051a6b

Еще никто не оставлял запись к записи скачать торрент Matrix Trilogy . Будь первым!

!Обратная связь