Скачать через торрент музыку BT & VA - More Music From The Fast and Furious Форсаж - 2001, FLAC бесплатно без регистрации torrent

Статистика раздачи
Размер:  355 MB   |    Зарегистрирован:  7 лет 1 месяц   |    .torrent скачан:  76 раз   |   
Раздают:  1  
   
загрузка...
 
Автор Сообщение

Galfimbul

avatar Galfimbul


More Music From Fast and Furious Soundtrack

Жанр: Soundtrack
Год выпуска диска: 2001
Производитель диска: USA
Аудио кодек: FLAC
Тип рипа: tracks+.cue
Битрейт аудио: lossless
Продолжительность: 51:12.893 (135514596 samples)
Трэклист:
01. Superstar / Saliva (4:09)
02. Faithless / Injected (3:22)
03. Crawling In The Dark / Hoobastank (2:56)
04. Dominic's Story / BT (1:45)
05. This Life / Primer 55 (3:28)
06. Crashing Around You / Machine Head (3:14)
07. Idi Banashapan / Roni Size-Reprazent (4:15)
08. Lock It Down / Digital Assassins (3:50)
09. Race Wars / BT (3:19)
10. Click Click Boom / Saliva (4:13)
11. Shelter / Greenwheel (3:38)
12. Watch Your Back / Benny Cassette (3:03)
13. Pocas Palabras / Molotov (3:24)
14. Fast And Furious Theme, The / BT (6:36)
EAC extraction logfile from 2. January 2008, 13:42 for CD
The fast and the Furious / More Music From

Used drive : LITE-ON DVDRW SHM-165P6S Adapter: 0 ID: 0
Read mode : Secure with NO C2, accurate stream, disable cache
Read offset correction : 6
Overread into Lead-In and Lead-Out : No

Used output format : C:\Program Files\Exact Audio Copy\flac.exe (User Defined Encoder)
192 kBit/s
Additional command line options : -8 -A tukey(0.25) -A gauss(0.1875) -b 4096 -V -T "artist=%a" -T "title=%t" -T "album=%g" -T "date=%y" -T "tracknumber=%n" -T "genre=%m" %s --sector-align

Other options :
Fill up missing offset samples with silence : Yes
Delete leading and trailing silent blocks : No
Installed external ASPI interface

Track 1
Filename D:\Ripped music\Fast and Furious\01 - The fast and the Furious - Superstar , Saliva.wav

Pre-gap length 0:00:02.00

Peak level 89.1 %
Track quality 99.9 %
Test CRC C80AD7B8
Copy CRC C80AD7B8
Copy OK

Track 2
Filename D:\Ripped music\Fast and Furious\02 - The fast and the Furious - Faithless , Injected.wav

Pre-gap length 0:00:01.09

Peak level 100.0 %
Track quality 100.0 %
Test CRC BE1A2023
Copy CRC BE1A2023
Copy OK

Track 3
Filename D:\Ripped music\Fast and Furious\03 - The fast and the Furious - Crawling In The Dark , Hoobastank.wav

Peak level 100.0 %
Track quality 100.0 %
Test CRC 7896081C
Copy CRC 7896081C
Copy OK

Track 4
Filename D:\Ripped music\Fast and Furious\04 - The fast and the Furious - Dominic's Story , BT.wav

Peak level 100.0 %
Track quality 100.0 %
Test CRC 41E78908
Copy CRC 41E78908
Copy OK

Track 5
Filename D:\Ripped music\Fast and Furious\05 - The fast and the Furious - This Life , Primer 55.wav

Peak level 100.0 %
Track quality 100.0 %
Test CRC 0BC1E519
Copy CRC 0BC1E519
Copy OK

Track 6
Filename D:\Ripped music\Fast and Furious\06 - The fast and the Furious - Crashing Around You , Machine Head.wav

Peak level 99.8 %
Track quality 100.0 %
Test CRC 829DC645
Copy CRC 829DC645
Copy OK

Track 7
Filename D:\Ripped music\Fast and Furious\07 - The fast and the Furious - Idi Banashapan , Roni Size-Reprazent.wav

Peak level 100.0 %
Track quality 100.0 %
Test CRC 1BA99FD9
Copy CRC 1BA99FD9
Copy OK

Track 8
Filename D:\Ripped music\Fast and Furious\08 - The fast and the Furious - Lock It Down , Digital Assassins.wav

Peak level 99.9 %
Track quality 99.9 %
Test CRC F25F21D8
Copy CRC F25F21D8
Copy OK

Track 9
Filename D:\Ripped music\Fast and Furious\09 - The fast and the Furious - Race Wars , BT.wav

Peak level 100.0 %
Track quality 100.0 %
Test CRC 322C28A5
Copy CRC 322C28A5
Copy OK

Track 10
Filename D:\Ripped music\Fast and Furious\10 - The fast and the Furious - Click Click Boom , Saliva.wav

Peak level 100.0 %
Track quality 99.9 %
Test CRC F21BB355
Copy CRC F21BB355
Copy OK

Track 11
Filename D:\Ripped music\Fast and Furious\11 - The fast and the Furious - Shelter , Greenwheel.wav

Peak level 96.5 %
Track quality 100.0 %
Test CRC 2FD5ACF9
Copy CRC 2FD5ACF9
Copy OK

Track 12
Filename D:\Ripped music\Fast and Furious\12 - The fast and the Furious - Watch Your Back , Benny Cassette.wav

Peak level 100.0 %
Track quality 99.9 %
Test CRC 0F0E8F0A
Copy CRC 0F0E8F0A
Copy OK

Track 13
Filename D:\Ripped music\Fast and Furious\13 - The fast and the Furious - Pocas Palabras , Molotov.wav

Peak level 100.0 %
Track quality 100.0 %
Test CRC 88A9582C
Copy CRC 88A9582C
Copy OK

Track 14
Filename D:\Ripped music\Fast and Furious\14 - The fast and the Furious - Fast And Furious Theme, The , BT.wav

Pre-gap length 0:00:01.89

Peak level 100.0 %
Track quality 100.0 %
Test CRC AF36D4DB
Copy CRC AF36D4DB
Copy OK

No errors occured

End of status report


Трекер:  [ 07-Июл-2011 22:44 ]

  

Скачать .torrent

Размер .torrent файла 16 KB


Размер: 355 MB
Хэш (hash) релиза: f68fe8f0338399a0251099cc458e37221437f0cc

Еще никто не оставлял запись к записи скачать торрент BT & VA - More Music From The Fast and Furious Форсаж - 2001, FLAC . Будь первым!

!Обратная связь