Скачать через торрент музыку Хороший, плохой, злой Il Buono, Il Cattivo, Il Brutto - by Ennio Morricone - 2004, FLAC бесплатно без регистрации torrent

Статистика раздачи
Размер:  259 MB   |    Зарегистрирован:  7 лет 7 месяцев   |    .torrent скачан:  78 раз   |   
Раздают:  1  
   
загрузка...
 
Автор Сообщение

AqvaGen


Хороший, плохой, злой / Il Buono, Il Cattivo, Il Brutto - by Ennio Morricone

Жанр: Soundtrack
Год выпуска диска: 2004
Производитель диска: USA
Аудио кодек: FLAC
Тип рипа: image+.cue
Битрейт аудио: lossless
Продолжительность: 55:01
Трэклист:
1. Il Buono Il Brutto Il Cattivo (Titoli) [The Good, The Bad & The Ugly (Main Title)] (2:42)
2. Il Tramonto [The Sundown] (1:15)
3. Sentenza (previously unreleased) (1:41)
4. Fuga A Cavallo (previously unreleased) (1:07)
5. Il Ponte Di Corde (previously unreleased) (1:51)
6. Il Forte [The Strong] (2:22)
7. Inseguimento (previously unreleased) (2:25)
8. Il Deserto [The Desert] (5:17)
9. La Carrozza Dei Fantasmi [The Carriage Of The Spirits] (2:09)
10. La Missione San Antonio (previously unreleased) (2:15)
11. Padre Ramirez (previously unreleased) (2:37)
12. Marcetta [Marcia] (2:53)
13. La Storia Di Un Soldato [The Story Of A Soldier] (3:53)
14. Il Treno Militare (previously unreleased) (1:25)
15. Fine Di Una Spia (previously unreleased) (1:16)
16. Il Bandito Monco (previously unreleased) (2:45)
17. Due Contro Cinque (previously unreleased) (3:46)
18. Marcetta Senza Speranza [Marcia Without Hope] (1:40)
19. Morte Di Un Soldato [The Death Of A Soldier] (3:08)
20. L'estasi Dell'oro [The Ecstasy Of Gold] (3:23)
21. Il Triello [The Trio (Main Title)] (5:02)

Доп. информация. Этот диск на Amazon.com
Exact Audio Copy V0.99 prebeta 3 from 28. July 2007

EAC extraction logfile from 19. April 2008, 10:05

Ennio Morricone / The Good, The Bad And The Ugly

Used drive : _NEC DVD_RW ND-3550A Adapter: 5 ID: 0

Read mode : Secure
Utilize accurate stream : Yes
Defeat audio cache : Yes
Make use of C2 pointers : No

Read offset correction : 48
Overread into Lead-In and Lead-Out : No
Fill up missing offset samples with silence : Yes
Delete leading and trailing silent blocks : No
Null samples used in CRC calculations : No
Used interface : Installed external ASPI interface

Used output format : User Defined Encoder
Selected bitrate : 768 kBit/s
Quality : High
Add ID3 tag : No
Command line compressor : C:\Programmi\Exact Audio Copy\FLAC\FLAC.EXE
Additional command line options : -6 -V -T "ARTIST=%a" -T "TITLE=%t" -T "ALBUM=%g" -T "DATE=%y" -T "TRACKNUMBER=%n" -T "GENRE=%m" -T "COMMENT=%e" %s -o %d

TOC of the extracted CD

Track | Start | Length | Start sector | End sector
---------------------------------------------------------
1 | 0:00.00 | 2:42.10 | 0 | 12159
2 | 2:42.10 | 1:15.52 | 12160 | 17836
3 | 3:57.62 | 1:41.65 | 17837 | 25476
4 | 5:39.52 | 1:07.05 | 25477 | 30506
5 | 6:46.57 | 1:51.70 | 30507 | 38901
6 | 8:38.52 | 2:22.58 | 38902 | 49609
7 | 11:01.35 | 2:25.05 | 49610 | 60489
8 | 13:26.40 | 5:17.10 | 60490 | 84274
9 | 18:43.50 | 2:09.30 | 84275 | 93979
10 | 20:53.05 | 2:15.07 | 93980 | 104111
11 | 23:08.12 | 2:37.30 | 104112 | 115916
12 | 25:45.42 | 2:53.18 | 115917 | 128909
13 | 28:38.60 | 3:53.70 | 128910 | 146454
14 | 32:32.55 | 1:25.05 | 146455 | 152834
15 | 33:57.60 | 1:16.65 | 152835 | 158599
16 | 35:14.50 | 2:45.47 | 158600 | 171021
17 | 38:00.22 | 3:46.40 | 171022 | 188011
18 | 41:46.62 | 1:40.38 | 188012 | 195549
19 | 43:27.25 | 3:08.10 | 195550 | 209659
20 | 46:35.35 | 3:23.17 | 209660 | 224901
21 | 49:58.52 | 5:02.38 | 224902 | 247589

Range status and errors

Selected range

Filename D:\Documents and Settings\salvo.SN116508160310\Documenti\Ennio Morricone - The Good, The Bad And The Ugly.wav

Peak level 100.0 %
Range quality 100.0 %
Test CRC EF2F7829
Copy CRC EF2F7829
Copy OK

No errors occurred

AccurateRip summary

Track 1 cannot be verified as accurate (confidence 6) [251B61B9], AccurateRip returned [937523A3]
Track 2 cannot be verified as accurate (confidence 6) [9E589DEF], AccurateRip returned [E84C6341]
Track 3 cannot be verified as accurate (confidence 6) [7D2611EB], AccurateRip returned [C6337D91]
Track 4 cannot be verified as accurate (confidence 6) [03FD5603], AccurateRip returned [234ADED9]
Track 5 cannot be verified as accurate (confidence 6) [9F4712C6], AccurateRip returned [F56D39A8]
Track 6 cannot be verified as accurate (confidence 6) [AD8454B9], AccurateRip returned [5595E301]
Track 7 cannot be verified as accurate (confidence 6) [29A9B5D1], AccurateRip returned [EBB0BF89]
Track 8 cannot be verified as accurate (confidence 6) [3BA25B41], AccurateRip returned [9E2CBAAB]
Track 9 cannot be verified as accurate (confidence 6) [7F7659E0], AccurateRip returned [837BFBD8]
Track 10 cannot be verified as accurate (confidence 6) [747DBD72], AccurateRip returned [27E42B20]
Track 11 cannot be verified as accurate (confidence 6) [BFB5F086], AccurateRip returned [6A9781CA]
Track 12 cannot be verified as accurate (confidence 6) [0D7827F9], AccurateRip returned [B22AB365]
Track 13 cannot be verified as accurate (confidence 6) [B0E9DB76], AccurateRip returned [FAECAFE0]
Track 14 cannot be verified as accurate (confidence 6) [D50E049F], AccurateRip returned [81AFA33D]
Track 15 cannot be verified as accurate (confidence 6) [75065E70], AccurateRip returned [40F09E82]
Track 16 cannot be verified as accurate (confidence 6) [E8FAAFDD], AccurateRip returned [1F915C19]
Track 17 cannot be verified as accurate (confidence 6) [09541AAC], AccurateRip returned [E6B6AD9E]
Track 18 cannot be verified as accurate (confidence 6) [488A629F], AccurateRip returned [89F2747F]
Track 19 cannot be verified as accurate (confidence 6) [E86F7327], AccurateRip returned [73B32E41]
Track 20 cannot be verified as accurate (confidence 6) [B353EE97], AccurateRip returned [2C7299D1]
Track 21 cannot be verified as accurate (confidence 6) [1588BCB4], AccurateRip returned [9A9E3ED3]

No tracks could be verified as accurate
You may have a different pressing from the one(s) in the database

End of status report


Трекер:  [ 06-Апр-2011 12:56 ]

  

Скачать .torrent

Размер .torrent файла 21 KB


Размер: 259 MB
Хэш (hash) релиза: b6830187760af1a837a01dfd0e12f07bcace737e

bot

Топик был перенесен в форум Саундтреки к фильмам и мультфильмам (lossless)

Перенес AqvaGen

Хотите добавить комментарий к записи скачать торрент Хороший, плохой, злой Il Buono, Il Cattivo, Il Brutto - by Ennio Morricone - 2004, FLAC

!Обратная связь