Скачать через торрент музыку Декстер: сезон 4 Dexter: Seasons 4 бесплатно без регистрации torrent

Статистика раздачи
Размер:  473 MB   |    Зарегистрирован:  7 лет 3 месяца   |    .torrent скачан:  42 раза   |   
Раздают:  1  
   
загрузка...
 
Автор Сообщение

AqvaGen


Декстер: сезон 4 / Dexter: Seasons 4

Жанр: Score / Soundtrack
Год выпуска диска: 2010
Год выпуска фильма: 2009
Страна-производитель диска: Milan
Издатель (лейбл): Milan Entertainment
Номер по каталогу: M2-36494
Аудио кодек: FLAC (*.flac)
Тип рипа: tracks+.cue
Битрейт аудио: lossless
Продолжительность: 01:18:00
Источник: CD
Наличие сканов в содержимом раздачи: да
Треклист:
01. Rolfe Kent - Dexter Main Title (1:43)
02. Frankie Avalon - Venus (2:24)
03. Brandi Shearer - Lullabies (2:49)
04. David Bowie - Changes (1997 Digital Remaster) (3:35)
05. Culture Club - Karma Chameleon (4:14)
06. The Latin Brothers - La Fabulosa (3:48)
07. Bobi Cespedes - Awoyo (4:11)
08. Luis Alberto - Estar Contigo (4:30)
09. Bobby Mattos - Mi Alma Latina (6:52)
10. Spanish Harlem Orchestra - Llego La Orquesta (6:07)
11. Daniel Licht - Everything Changes (1:34)
12. Daniel Licht - Introducing Trinity (1:44)
13. Daniel Licht - Love Your Wife (2:17)
14. Daniel Licht - Needle In A Haystack (1:42)
15. Daniel Licht - I Need More Time (1:37)
16. Daniel Licht - The Axe/Perfect (3:13)
17. Daniel Licht - Ice Cream/Following Scott (3:28)
18. Daniel Licht - We Need A Break/I Shot You (2:56)
19. Daniel Licht - Trinity Suite (3:13)
20. Daniel Licht - The Perfect Pie/Killing Zoe (3:34)
21. Daniel Licht - The Truth (1:52)
22. Daniel Licht - Following Trinity (1:46)
23. Daniel Licht - Tides (1:45)
24. Daniel Licht - Back To The House (1:39)
25. Daniel Licht - Forgetting Lundy (1:42)
26. Daniel Licht - The End (1:40)
27. Daniel Licht - Blood Theme For Strings (2:04)
 
Exact Audio Copy V0.99 prebeta 5 from 4. May 2009

EAC extraction logfile from 24. August 2010, 20:15

Various / Dexter - Season 4 (Music From The Showtime Original Series)

Used drive : Optiarc DVD RW AD-7241S Adapter: 1 ID: 1

Read mode : SecureUtilize accurate stream : YesDefeat audio cache : YesMake use of C2 pointers : No

Read offset correction : 48Overread into Lead-In and Lead-Out : NoFill up missing offset samples with silence : YesDelete leading and trailing silent blocks : NoNull samples used in CRC calculations : YesUsed interface : Native Win32 interface for Win NT & 2000Gap handling : Appended to previous track

Used output format : User Defined EncoderSelected bitrate : 128 kBit/sQuality : HighAdd ID3 tag : NoCommand line compressor : C:\Program Files (x86)\Exact Audio Copy\Flac\flac.exeAdditional command line options : -8 -V -T "artist=%a" -T "title=%t" -T "album=%g" -T "date=%y" -T "tracknumber=%n" -T "genre=%m" %s

TOC of the extracted CD

Track | Start | Length | Start sector | End sector --------------------------------------------------------- 1 | 0:00.00 | 1:42.73 | 0 | 7722 2 | 1:42.73 | 2:24.30 | 7723 | 18552 3 | 4:07.28 | 2:48.49 | 18553 | 31201 4 | 6:56.02 | 3:34.38 | 31202 | 47289 5 | 10:30.40 | 4:14.22 | 47290 | 66361 6 | 14:44.62 | 3:47.39 | 66362 | 83425 7 | 18:32.26 | 4:10.63 | 83426 | 102238 8 | 22:43.14 | 4:30.30 | 102239 | 122518 9 | 27:13.44 | 6:52.20 | 122519 | 153438 10 | 34:05.64 | 6:06.48 | 153439 | 180936 11 | 40:12.37 | 1:34.00 | 180937 | 187986 12 | 41:46.37 | 1:44.08 | 187987 | 195794 13 | 43:30.45 | 2:17.26 | 195795 | 206095 14 | 45:47.71 | 1:42.00 | 206096 | 213745 15 | 47:29.71 | 1:36.39 | 213746 | 220984 16 | 49:06.35 | 3:13.10 | 220985 | 235469 17 | 52:19.45 | 3:28.30 | 235470 | 251099 18 | 55:48.00 | 2:55.42 | 251100 | 264266 19 | 58:43.42 | 3:12.64 | 264267 | 278730 20 | 61:56.31 | 3:34.00 | 278731 | 294780 21 | 65:30.31 | 1:51.60 | 294781 | 303165 22 | 67:22.16 | 1:46.30 | 303166 | 311145 23 | 69:08.46 | 1:45.28 | 311146 | 319048 24 | 70:53.74 | 1:39.12 | 319049 | 326485 25 | 72:33.11 | 1:42.08 | 326486 | 334143 26 | 74:15.19 | 1:40.14 | 334144 | 341657 27 | 75:55.33 | 2:04.32 | 341658 | 350989

Track 1

Filename C:\Users\chris\Desktop\Rips\01 - Dexter Main Title.wav

Pre-gap length 0:00:02.00

Peak level 100.0 % Track quality 100.0 % Test CRC 1FD1CA21 Copy CRC 1FD1CA21 Track not present in AccurateRip database Copy OK

Track 2

Filename C:\Users\chris\Desktop\Rips\02 - Venus.wav

Peak level 87.8 % Track quality 100.0 % Test CRC A5E82F10 Copy CRC A5E82F10 Track not present in AccurateRip database Copy OK

Track 3

Filename C:\Users\chris\Desktop\Rips\03 - Lullabies.wav

Peak level 100.0 % Track quality 99.9 % Test CRC B666D9AF Copy CRC B666D9AF Track not present in AccurateRip database Copy OK

Track 4

Filename C:\Users\chris\Desktop\Rips\04 - Changes (1997 Digital Remaster).wav

Peak level 100.0 % Track quality 99.9 % Test CRC 2D1AF26F Copy CRC 2D1AF26F Track not present in AccurateRip database Copy OK

Track 5

Filename C:\Users\chris\Desktop\Rips\05 - Karma Chameleon.wav

Peak level 89.0 % Track quality 100.0 % Test CRC 8915F7D4 Copy CRC 8915F7D4 Track not present in AccurateRip database Copy OK

Track 6

Filename C:\Users\chris\Desktop\Rips\06 - La Fabulosa.wav

Peak level 89.0 % Track quality 100.0 % Test CRC 0847FC2D Copy CRC 0847FC2D Track not present in AccurateRip database Copy OK

Track 7

Filename C:\Users\chris\Desktop\Rips\07 - Awoyo.wav

Peak level 89.0 % Track quality 100.0 % Test CRC E7A3DFB5 Copy CRC E7A3DFB5 Track not present in AccurateRip database Copy OK

Track 8

Filename C:\Users\chris\Desktop\Rips\08 - Estar Contigo.wav

Peak level 79.3 % Track quality 100.0 % Test CRC 967A6446 Copy CRC 967A6446 Track not present in AccurateRip database Copy OK

Track 9

Filename C:\Users\chris\Desktop\Rips\09 - Mi Alma Latina.wav

Peak level 74.5 % Track quality 100.0 % Test CRC A89ADBA4 Copy CRC A89ADBA4 Track not present in AccurateRip database Copy OK

Track 10

Filename C:\Users\chris\Desktop\Rips\10 - Llego La Orquesta.wav

Peak level 70.7 % Track quality 100.0 % Test CRC 2799E0CD Copy CRC 2799E0CD Track not present in AccurateRip database Copy OK

Track 11

Filename C:\Users\chris\Desktop\Rips\11 - Everything Changes.wav

Peak level 96.7 % Track quality 100.0 % Test CRC CC8D18ED Copy CRC CC8D18ED Track not present in AccurateRip database Copy OK

Track 12

Filename C:\Users\chris\Desktop\Rips\12 - Introducing Trinity.wav

Peak level 100.0 % Track quality 100.0 % Test CRC 8FA604C1 Copy CRC 8FA604C1 Track not present in AccurateRip database Copy OK

Track 13

Filename C:\Users\chris\Desktop\Rips\13 - Love Your Wife.wav

Peak level 96.5 % Track quality 100.0 % Test CRC 5A26A43A Copy CRC 5A26A43A Track not present in AccurateRip database Copy OK

Track 14

Filename C:\Users\chris\Desktop\Rips\14 - Needle In A Haystack.wav

Peak level 100.0 % Track quality 100.0 % Test CRC CED057B5 Copy CRC CED057B5 Track not present in AccurateRip database Copy OK

Track 15

Filename C:\Users\chris\Desktop\Rips\15 - I Need More Time.wav

Peak level 81.6 % Track quality 100.0 % Test CRC 448A92B5 Copy CRC 448A92B5 Track not present in AccurateRip database Copy OK

Track 16

Filename C:\Users\chris\Desktop\Rips\16 - The Axe,Perfect.wav

Peak level 77.3 % Track quality 100.0 % Test CRC C5596FED Copy CRC C5596FED Track not present in AccurateRip database Copy OK

Track 17

Filename C:\Users\chris\Desktop\Rips\17 - Ice Cream,Following Scott.wav

Peak level 97.6 % Track quality 100.0 % Test CRC C05DBF97 Copy CRC C05DBF97 Track not present in AccurateRip database Copy OK

Track 18

Filename C:\Users\chris\Desktop\Rips\18 - We Need A Break,I Shot You.wav

Peak level 80.3 % Track quality 100.0 % Test CRC 379BA528 Copy CRC 379BA528 Track not present in AccurateRip database Copy OK

Track 19

Filename C:\Users\chris\Desktop\Rips\19 - Trinity Suite.wav

Peak level 100.0 % Track quality 100.0 % Test CRC A444D625 Copy CRC A444D625 Track not present in AccurateRip database Copy OK

Track 20

Filename C:\Users\chris\Desktop\Rips\20 - The Perfect Pie,Killing Zoe.wav

Peak level 96.5 % Track quality 100.0 % Test CRC 0DBA5C86 Copy CRC 0DBA5C86 Track not present in AccurateRip database Copy OK

Track 21

Filename C:\Users\chris\Desktop\Rips\21 - The Truth.wav

Peak level 96.4 % Track quality 100.0 % Test CRC AF5D4708 Copy CRC AF5D4708 Track not present in AccurateRip database Copy OK

Track 22

Filename C:\Users\chris\Desktop\Rips\22 - Following Trinity.wav

Peak level 96.5 % Track quality 100.0 % Test CRC 357525F4 Copy CRC 357525F4 Track not present in AccurateRip database Copy OK

Track 23

Filename C:\Users\chris\Desktop\Rips\23 - Tides.wav

Peak level 98.2 % Track quality 100.0 % Test CRC 10DBD5CF Copy CRC 10DBD5CF Track not present in AccurateRip database Copy OK

Track 24

Filename C:\Users\chris\Desktop\Rips\24 - Back To The House.wav

Peak level 81.9 % Track quality 100.0 % Test CRC 7570EF22 Copy CRC 7570EF22 Track not present in AccurateRip database Copy OK

Track 25

Filename C:\Users\chris\Desktop\Rips\25 - Forgetting Lundy.wav

Peak level 96.6 % Track quality 100.0 % Test CRC 0187861B Copy CRC 0187861B Track not present in AccurateRip database Copy OK

Track 26

Filename C:\Users\chris\Desktop\Rips\26 - The End.wav

Peak level 96.5 % Track quality 100.0 % Test CRC BCCC82BC Copy CRC BCCC82BC Track not present in AccurateRip database Copy OK

Track 27

Filename C:\Users\chris\Desktop\Rips\27 - Blood Theme For Strings.wav

Peak level 96.4 % Track quality 100.0 % Test CRC DBA04A2F Copy CRC DBA04A2F Track not present in AccurateRip database Copy OK

None of the tracks are present in the AccurateRip database

No errors occurred

End of status report
 
REM GENRE SoundtrackREM DATE 2010REM DISCID 8012471BREM COMMENT "ExactAudioCopy v0.99pb5"PERFORMER "Various"TITLE "Dexter - Season 4 (Music From The Showtime Original Series)"FILE "01 - Dexter Main Title.wav" WAVE TRACK 01 AUDIO TITLE "Dexter Main Title" PERFORMER "Rolfe Kent" INDEX 01 00:00:00FILE "02 - Venus.wav" WAVE TRACK 02 AUDIO TITLE "Venus" PERFORMER "Frankie Avalon" INDEX 01 00:00:00FILE "03 - Lullabies.wav" WAVE TRACK 03 AUDIO TITLE "Lullabies" PERFORMER "Brandi Shearer" INDEX 01 00:00:00FILE "04 - Changes (1997 Digital Remaster).wav" WAVE TRACK 04 AUDIO TITLE "Changes (1997 Digital Remaster)" PERFORMER "David Bowie" INDEX 01 00:00:00FILE "05 - Karma Chameleon.wav" WAVE TRACK 05 AUDIO TITLE "Karma Chameleon" PERFORMER "Culture Club" INDEX 01 00:00:00FILE "06 - La Fabulosa.wav" WAVE TRACK 06 AUDIO TITLE "La Fabulosa" PERFORMER "The Latin Brothers" INDEX 01 00:00:00FILE "07 - Awoyo.wav" WAVE TRACK 07 AUDIO TITLE "Awoyo" PERFORMER "Bobi Cespedes" INDEX 01 00:00:00FILE "08 - Estar Contigo.wav" WAVE TRACK 08 AUDIO TITLE "Estar Contigo" PERFORMER "Luis Alberto" INDEX 01 00:00:00FILE "09 - Mi Alma Latina.wav" WAVE TRACK 09 AUDIO TITLE "Mi Alma Latina" PERFORMER "Bobby Mattos" INDEX 01 00:00:00FILE "10 - Llego La Orquesta.wav" WAVE TRACK 10 AUDIO TITLE "Llego La Orquesta" PERFORMER "Spanish Harlem Orchestra" INDEX 01 00:00:00FILE "11 - Everything Changes.wav" WAVE TRACK 11 AUDIO TITLE "Everything Changes" PERFORMER "Daniel Licht" INDEX 01 00:00:00FILE "12 - Introducing Trinity.wav" WAVE TRACK 12 AUDIO TITLE "Introducing Trinity" PERFORMER "Daniel Licht" INDEX 01 00:00:00FILE "13 - Love Your Wife.wav" WAVE TRACK 13 AUDIO TITLE "Love Your Wife" PERFORMER "Daniel Licht" INDEX 01 00:00:00FILE "14 - Needle In A Haystack.wav" WAVE TRACK 14 AUDIO TITLE "Needle In A Haystack" PERFORMER "Daniel Licht" INDEX 01 00:00:00FILE "15 - I Need More Time.wav" WAVE TRACK 15 AUDIO TITLE "I Need More Time" PERFORMER "Daniel Licht" INDEX 01 00:00:00FILE "16 - The Axe,Perfect.wav" WAVE TRACK 16 AUDIO TITLE "The Axe/Perfect" PERFORMER "Daniel Licht" INDEX 01 00:00:00FILE "17 - Ice Cream,Following Scott.wav" WAVE TRACK 17 AUDIO TITLE "Ice Cream/Following Scott" PERFORMER "Daniel Licht" INDEX 01 00:00:00FILE "18 - We Need A Break,I Shot You.wav" WAVE TRACK 18 AUDIO TITLE "We Need A Break/I Shot You" PERFORMER "Daniel Licht" INDEX 01 00:00:00FILE "19 - Trinity Suite.wav" WAVE TRACK 19 AUDIO TITLE "Trinity Suite" PERFORMER "Daniel Licht" INDEX 01 00:00:00FILE "20 - The Perfect Pie,Killing Zoe.wav" WAVE TRACK 20 AUDIO TITLE "The Perfect Pie/Killing Zoe" PERFORMER "Daniel Licht" INDEX 01 00:00:00FILE "21 - The Truth.wav" WAVE TRACK 21 AUDIO TITLE "The Truth" PERFORMER "Daniel Licht" INDEX 01 00:00:00FILE "22 - Following Trinity.wav" WAVE TRACK 22 AUDIO TITLE "Following Trinity" PERFORMER "Daniel Licht" INDEX 01 00:00:00FILE "23 - Tides.wav" WAVE TRACK 23 AUDIO TITLE "Tides" PERFORMER "Daniel Licht" INDEX 01 00:00:00FILE "24 - Back To The House.wav" WAVE TRACK 24 AUDIO TITLE "Back To The House" PERFORMER "Daniel Licht" INDEX 01 00:00:00FILE "25 - Forgetting Lundy.wav" WAVE TRACK 25 AUDIO TITLE "Forgetting Lundy" PERFORMER "Daniel Licht" INDEX 01 00:00:00FILE "26 - The End.wav" WAVE TRACK 26 AUDIO TITLE "The End" PERFORMER "Daniel Licht" INDEX 01 00:00:00FILE "27 - Blood Theme For Strings.wav" WAVE TRACK 27 AUDIO TITLE "Blood Theme For Strings" PERFORMER "Daniel Licht" INDEX 01 00:00:00


Трекер:  [ 29-Дек-2010 22:43 ]

  

Скачать .torrent

Размер .torrent файла 21 KB


Размер: 473 MB
Хэш (hash) релиза: b1b0d1b8ecd1b9e19bb92a0626c3f17e010089b8

Торренты, похожие на Декстер: сезон 4 Dexter: Seasons 4 скачать торрент

Форум Название Автор Размер S L Добавлен
Саундтреки к фильмам и мультфильмам (mp3) ·· (Score / Soundtrack) Декстер: сезон 4 / Dexter: Seasons 4 (by Daniel Licht & VA) - 2010 [MP3 (tracks) 320 kbps] AqvaGen 220705225210 MB 0 0 1292265113

21:31

13-Дек-10

bot

Топик был перенесен в форум Саундтреки к фильмам и мультфильмам (lossless)

Перенес AqvaGen

Хотите добавить комментарий к записи скачать торрент Декстер: сезон 4 Dexter: Seasons 4

!Обратная связь