Скачать через торрент музыку Cirque Du Soleil - 25 бесплатно без регистрации torrent

Статистика раздачи
Размер:  728 MB   |    Зарегистрирован:  7 лет 1 месяц   |    .torrent скачан:  90 раз   |   
Раздают:  1  
   
загрузка...
 
Автор Сообщение

Galfimbul

avatar Galfimbul


Cirque Du Soleil - 25

Жанр: Soundtrack
Год выпуска диска: 2009
Аудио кодек: FLAC
Тип рипа: tracks+.cue
Битрейт аудио: lossless
Продолжительность: CD1 - 55:15, CD2 - 54:47
01. Ouverture (Cirque Reinvente) 1:44
02. Le Funambule (La Magie Continue) 3:37
03. Meandres (Fascination) 6:55
04. Havi Vahlia (Nouvelle Experience) 4:40
05. Vai Vedrai (Alegria) 4:33
06. A Tale (La Nouba) 4:19
07. Piece of Heaven (Zumanity) 4:58
08. Volo Volando (Corteo) 4:31
09. Beyond the Clouds (Wintuk) 3:27
10. Sexy Pet (Believe) 2:48
11. The Worlds Meet (Zed) 6:36
12. Banquete (Ovo) 2:47
13. Alegria (Alegria, le film) 4:20
 
REM GENRE InstrumentalREM DATE 2009REM DISCID A60CF30DREM COMMENT "ExactAudioCopy v0.99pb3"PERFORMER "Cirque du Soleil"TITLE "Cirque du Soleil 25 - CD1 - Poetique"FILE "01 - Ouverture.wav" WAVE TRACK 01 AUDIO TITLE "Ouverture" PERFORMER "Cirque du Soleil" INDEX 01 00:00:00FILE "02 - Le funambule.wav" WAVE TRACK 02 AUDIO TITLE "Le funambule" PERFORMER "Cirque du Soleil" INDEX 01 00:00:00FILE "03 - Meandres.wav" WAVE TRACK 03 AUDIO TITLE "Meandres" PERFORMER "Cirque du Soleil" INDEX 01 00:00:00FILE "04 - Havi Vahlia.wav" WAVE TRACK 04 AUDIO TITLE "Havi Vahlia" PERFORMER "Cirque du Soleil" INDEX 01 00:00:00FILE "05 - Vai Vedrai.wav" WAVE TRACK 05 AUDIO TITLE "Vai Vedrai" PERFORMER "Cirque du Soleil" INDEX 01 00:00:00FILE "06 - A tale.wav" WAVE TRACK 06 AUDIO TITLE "A tale" PERFORMER "Cirque du Soleil" INDEX 01 00:00:00FILE "07 - Piece of heaven.wav" WAVE TRACK 07 AUDIO TITLE "Piece of heaven" PERFORMER "Cirque du Soleil" INDEX 01 00:00:00FILE "08 - Volo Volando.wav" WAVE TRACK 08 AUDIO TITLE "Volo Volando" PERFORMER "Cirque du Soleil" INDEX 01 00:00:00FILE "09 - Beyond the clouds.wav" WAVE TRACK 09 AUDIO TITLE "Beyond the clouds" PERFORMER "Cirque du Soleil" INDEX 01 00:00:00FILE "10 - Sexy pet.wav" WAVE TRACK 10 AUDIO TITLE "Sexy pet" PERFORMER "Cirque du Soleil" INDEX 01 00:00:00FILE "11 - The worlds meet.wav" WAVE TRACK 11 AUDIO TITLE "The worlds meet" PERFORMER "Cirque du Soleil" INDEX 01 00:00:00FILE "12 - Banquete.wav" WAVE TRACK 12 AUDIO TITLE "Banquete" PERFORMER "Cirque du Soleil" INDEX 01 00:00:00FILE "13 - Alegria.wav" WAVE TRACK 13 AUDIO TITLE "Alegria" PERFORMER "Cirque du Soleil" INDEX 01 00:00:00
 
Exact Audio Copy V0.99 prebeta 3 from 28. July 2007

EAC extraction logfile from 26. November 2009, 21:40

Cirque du Soleil / Cirque du Soleil 25 - Disc 1 - Poйtique

Used drive : SONY DVD RW DRU-510A Adapter: 0 ID: 0

Read mode : SecureUtilize accurate stream : YesDefeat audio cache : YesMake use of C2 pointers : No

Read offset correction : 120Overread into Lead-In and Lead-Out : NoFill up missing offset samples with silence : YesDelete leading and trailing silent blocks : NoNull samples used in CRC calculations : YesUsed interface : Native Win32 interface for Win NT & 2000Gap handling : Appended to previous track

Used output format : User Defined EncoderSelected bitrate : 320 kBit/sQuality : HighAdd ID3 tag : NoCommand line compressor : C:\Program Files\Exact Audio Copy\Flac\flac.exeAdditional command line options : -V -8 -T "artist=%a" -T "title=%t" -T "album=%g" -T "date=%y" -T "tracknumber=%n" -T "genre=%m" %s

TOC of the extracted CD

Track | Start | Length | Start sector | End sector --------------------------------------------------------- 1 | 0:00.00 | 1:43.51 | 0 | 7775 2 | 1:43.51 | 3:37.23 | 7776 | 24073 3 | 5:20.74 | 6:55.15 | 24074 | 55213 4 | 12:16.14 | 4:40.02 | 55214 | 76215 5 | 16:56.16 | 4:32.73 | 76216 | 96688 6 | 21:29.14 | 4:19.05 | 96689 | 116118 7 | 25:48.19 | 4:58.03 | 116119 | 138471 8 | 30:46.22 | 4:30.71 | 138472 | 158792 9 | 35:17.18 | 3:26.54 | 158793 | 174296 10 | 38:43.72 | 2:48.26 | 174297 | 186922 11 | 41:32.23 | 6:36.00 | 186923 | 216622 12 | 48:08.23 | 2:47.26 | 216623 | 229173 13 | 50:55.49 | 4:20.08 | 229174 | 248681

Track 1

Filename C:\Rips\Cirque du Soleil - 2009 - Cirque du Soleil 25 - Disc 1 - Poйtique [FLAC]\01 - Ouverture.wav

Pre-gap length 0:00:02.00

Peak level 96.9 % Track quality 100.0 % Test CRC 14E535B5 Copy CRC 14E535B5 Accurately ripped (confidence 1) [3EB37678] Copy OK

Track 2

Filename C:\Rips\Cirque du Soleil - 2009 - Cirque du Soleil 25 - Disc 1 - Poйtique [FLAC]\02 - Le funambule.wav

Peak level 98.8 % Track quality 100.0 % Test CRC EDEF4424 Copy CRC EDEF4424 Accurately ripped (confidence 1) [D348A8F5] Copy OK

Track 3

Filename C:\Rips\Cirque du Soleil - 2009 - Cirque du Soleil 25 - Disc 1 - Poйtique [FLAC]\03 - Mйandres.wav

Peak level 97.3 % Track quality 100.0 % Test CRC 3C462F30 Copy CRC 3C462F30 Accurately ripped (confidence 1) [4430253C] Copy OK

Track 4

Filename C:\Rips\Cirque du Soleil - 2009 - Cirque du Soleil 25 - Disc 1 - Poйtique [FLAC]\04 - Havi Vahlia.wav

Peak level 98.8 % Track quality 100.0 % Test CRC 759F9A33 Copy CRC 759F9A33 Accurately ripped (confidence 1) [ADBCB510] Copy OK

Track 5

Filename C:\Rips\Cirque du Soleil - 2009 - Cirque du Soleil 25 - Disc 1 - Poйtique [FLAC]\05 - Vai Vedrai.wav

Peak level 98.8 % Track quality 100.0 % Test CRC CFD5B60C Copy CRC CFD5B60C Accurately ripped (confidence 1) [C282B9D1] Copy OK

Track 6

Filename C:\Rips\Cirque du Soleil - 2009 - Cirque du Soleil 25 - Disc 1 - Poйtique [FLAC]\06 - A tale.wav

Peak level 98.8 % Track quality 100.0 % Test CRC 311730E2 Copy CRC 311730E2 Accurately ripped (confidence 1) [18442907] Copy OK

Track 7

Filename C:\Rips\Cirque du Soleil - 2009 - Cirque du Soleil 25 - Disc 1 - Poйtique [FLAC]\07 - Piece of heaven.wav

Peak level 97.2 % Track quality 100.0 % Test CRC 74FED67C Copy CRC 74FED67C Accurately ripped (confidence 1) [3F1362C4] Copy OK

Track 8

Filename C:\Rips\Cirque du Soleil - 2009 - Cirque du Soleil 25 - Disc 1 - Poйtique [FLAC]\08 - Volo Volando.wav

Peak level 95.1 % Track quality 99.9 % Test CRC F46177A2 Copy CRC F46177A2 Accurately ripped (confidence 1) [C96D2268] Copy OK

Track 9

Filename C:\Rips\Cirque du Soleil - 2009 - Cirque du Soleil 25 - Disc 1 - Poйtique [FLAC]\09 - Beyond the clouds.wav

Peak level 91.2 % Track quality 100.0 % Test CRC BB52D4D9 Copy CRC BB52D4D9 Accurately ripped (confidence 1) [D5C94599] Copy OK

Track 10

Filename C:\Rips\Cirque du Soleil - 2009 - Cirque du Soleil 25 - Disc 1 - Poйtique [FLAC]\10 - Sexy pet.wav

Peak level 98.8 % Track quality 99.9 % Test CRC CE2CC095 Copy CRC CE2CC095 Accurately ripped (confidence 1) [4FB13F77] Copy OK

Track 11

Filename C:\Rips\Cirque du Soleil - 2009 - Cirque du Soleil 25 - Disc 1 - Poйtique [FLAC]\11 - The worlds meet.wav

Peak level 97.7 % Track quality 100.0 % Test CRC F73EEDC6 Copy CRC F73EEDC6 Accurately ripped (confidence 1) [AC31A095] Copy OK

Track 12

Filename C:\Rips\Cirque du Soleil - 2009 - Cirque du Soleil 25 - Disc 1 - Poйtique [FLAC]\12 - Banquete.wav

Peak level 98.9 % Track quality 99.9 % Test CRC 96BE4A49 Copy CRC 96BE4A49 Accurately ripped (confidence 1) [86D8764B] Copy OK

Track 13

Filename C:\Rips\Cirque du Soleil - 2009 - Cirque du Soleil 25 - Disc 1 - Poйtique [FLAC]\13 - Alegria.wav

Peak level 98.9 % Track quality 100.0 % Test CRC EDDA706A Copy CRC EDDA706A Accurately ripped (confidence 1) [A4065682] Copy OK

All tracks accurately ripped

No errors occurred

End of status report
14. Le Cirque du Soleil (Cirque du Soleil) 3:22
15. Les Pingouins (Cirque du Soleil) 3:25
16. Barock (Saltimbanco) 3:59
17. Rivage (Quidam) 4:10
18. Birimbau (Mystere) 6:10
19. Svecounia ("O") 5:00
20. Ravendhi (Dralion) 4:39
21. Lubia Dobarstan (Varekai) 4:29
22. Pursuit (KA) 5:53
23. One Love (Delirium) 3:11
24. Hum Jaisa Na Dekha (Kooza) 3:45
25. Utinam (Zaia) 6:46
 
REM GENRE InstrumentalREM DATE 2009REM DISCID B80CD70CREM COMMENT "ExactAudioCopy v0.99pb3"PERFORMER "Cirque du Soleil"TITLE "Cirque du Soleil 25 - CD2 - Dynamique"FILE "01 - Le Cirque du Soleil.wav" WAVE TRACK 01 AUDIO TITLE "Le Cirque du Soleil" PERFORMER "Cirque du Soleil" INDEX 01 00:00:00FILE "02 - Les pingouins.wav" WAVE TRACK 02 AUDIO TITLE "Les pingouins" PERFORMER "Cirque du Soleil" INDEX 01 00:00:00FILE "03 - Barock.wav" WAVE TRACK 03 AUDIO TITLE "Barock" PERFORMER "Cirque du Soleil" INDEX 01 00:00:00FILE "04 - Rivage.wav" WAVE TRACK 04 AUDIO TITLE "Rivage" PERFORMER "Cirque du Soleil" INDEX 01 00:00:00FILE "05 - Birimbau.wav" WAVE TRACK 05 AUDIO TITLE "Birimbau" PERFORMER "Cirque du Soleil" INDEX 01 00:00:00FILE "06 - Svecounia.wav" WAVE TRACK 06 AUDIO TITLE "Svecounia" PERFORMER "Cirque du Soleil" INDEX 01 00:00:00FILE "07 - Ravendhi.wav" WAVE TRACK 07 AUDIO TITLE "Ravendhi" PERFORMER "Cirque du Soleil" INDEX 01 00:00:00FILE "08 - Lubia Dobarstan.wav" WAVE TRACK 08 AUDIO TITLE "Lubia Dobarstan" PERFORMER "Cirque du Soleil" INDEX 01 00:00:00FILE "09 - Pursuit.wav" WAVE TRACK 09 AUDIO TITLE "Pursuit" PERFORMER "Cirque du Soleil" INDEX 01 00:00:00FILE "10 - One love.wav" WAVE TRACK 10 AUDIO TITLE "One love" PERFORMER "Cirque du Soleil" INDEX 01 00:00:00FILE "11 - Hum Jaisa Na Dekha.wav" WAVE TRACK 11 AUDIO TITLE "Hum Jaisa Na Dekha" PERFORMER "Cirque du Soleil" INDEX 01 00:00:00FILE "12 - Utinam.wav" WAVE TRACK 12 AUDIO TITLE "Utinam" PERFORMER "Cirque du Soleil" INDEX 01 00:00:00
 
Exact Audio Copy V0.99 prebeta 3 from 28. July 2007

EAC extraction logfile from 26. November 2009, 22:15

Cirque du Soleil / Cirque du Soleil 25 - CD02 Dynamique

Used drive : SONY DVD RW DRU-510A Adapter: 0 ID: 0

Read mode : SecureUtilize accurate stream : YesDefeat audio cache : YesMake use of C2 pointers : No

Read offset correction : 120Overread into Lead-In and Lead-Out : NoFill up missing offset samples with silence : YesDelete leading and trailing silent blocks : NoNull samples used in CRC calculations : YesUsed interface : Native Win32 interface for Win NT & 2000Gap handling : Appended to previous track

Used output format : User Defined EncoderSelected bitrate : 320 kBit/sQuality : HighAdd ID3 tag : NoCommand line compressor : C:\Program Files\Exact Audio Copy\Flac\flac.exeAdditional command line options : -V -8 -T "artist=%a" -T "title=%t" -T "album=%g" -T "date=%y" -T "tracknumber=%n" -T "genre=%m" %s

TOC of the extracted CD

Track | Start | Length | Start sector | End sector --------------------------------------------------------- 1 | 0:00.00 | 3:21.48 | 0 | 15122 2 | 3:21.48 | 3:25.09 | 15123 | 30506 3 | 6:46.57 | 3:59.12 | 30507 | 48443 4 | 10:45.69 | 4:09.66 | 48444 | 67184 5 | 14:55.60 | 6:09.59 | 67185 | 94918 6 | 21:05.44 | 5:00.14 | 94919 | 117432 7 | 26:05.58 | 4:38.48 | 117433 | 138330 8 | 30:44.31 | 4:28.72 | 138331 | 158502 9 | 35:13.28 | 5:52.42 | 158503 | 184944 10 | 41:05.70 | 3:10.49 | 184945 | 199243 11 | 44:16.44 | 3:44.57 | 199244 | 216100 12 | 48:01.26 | 6:46.15 | 216101 | 246565

Track 1

Filename C:\Rips\Cirque du Soleil - 2009 - Cirque du Soleil 25 - CD02 Dynamique [FLAC]\01 - Le Cirque du Soleil.wav

Pre-gap length 0:00:02.00

Peak level 98.8 % Track quality 100.0 % Test CRC 4456F646 Copy CRC 4456F646 Accurately ripped (confidence 1) [F8B7BBED] Copy OK

Track 2

Filename C:\Rips\Cirque du Soleil - 2009 - Cirque du Soleil 25 - CD02 Dynamique [FLAC]\02 - Les pingouins.wav

Peak level 98.9 % Track quality 100.0 % Test CRC B0FB474A Copy CRC B0FB474A Accurately ripped (confidence 1) [A4831223] Copy OK

Track 3

Filename C:\Rips\Cirque du Soleil - 2009 - Cirque du Soleil 25 - CD02 Dynamique [FLAC]\03 - Barock.wav

Peak level 98.9 % Track quality 100.0 % Test CRC 22D98C05 Copy CRC 22D98C05 Accurately ripped (confidence 1) [B737F02E] Copy OK

Track 4

Filename C:\Rips\Cirque du Soleil - 2009 - Cirque du Soleil 25 - CD02 Dynamique [FLAC]\04 - Rivage.wav

Peak level 98.8 % Track quality 100.0 % Test CRC A3AE7ADF Copy CRC A3AE7ADF Accurately ripped (confidence 1) [1F2FF682] Copy OK

Track 5

Filename C:\Rips\Cirque du Soleil - 2009 - Cirque du Soleil 25 - CD02 Dynamique [FLAC]\05 - Birimbau.wav

Peak level 98.8 % Track quality 100.0 % Test CRC A5A2A601 Copy CRC A5A2A601 Accurately ripped (confidence 1) [BDB5F43F] Copy OK

Track 6

Filename C:\Rips\Cirque du Soleil - 2009 - Cirque du Soleil 25 - CD02 Dynamique [FLAC]\06 - Svecounia.wav

Peak level 98.8 % Track quality 99.9 % Test CRC B595FFA7 Copy CRC B595FFA7 Accurately ripped (confidence 1) [A375195B] Copy OK

Track 7

Filename C:\Rips\Cirque du Soleil - 2009 - Cirque du Soleil 25 - CD02 Dynamique [FLAC]\07 - Ravendhi.wav

Peak level 98.9 % Track quality 100.0 % Test CRC 3BE0EF16 Copy CRC 3BE0EF16 Accurately ripped (confidence 1) [49641A82] Copy OK

Track 8

Filename C:\Rips\Cirque du Soleil - 2009 - Cirque du Soleil 25 - CD02 Dynamique [FLAC]\08 - Lubia Dobarstan.wav

Peak level 98.8 % Track quality 99.9 % Test CRC BD7B207B Copy CRC BD7B207B Accurately ripped (confidence 1) [658925AF] Copy OK

Track 9

Filename C:\Rips\Cirque du Soleil - 2009 - Cirque du Soleil 25 - CD02 Dynamique [FLAC]\09 - Pursuit.wav

Peak level 98.3 % Track quality 100.0 % Test CRC A5352022 Copy CRC A5352022 Accurately ripped (confidence 1) [EBE94429] Copy OK

Track 10

Filename C:\Rips\Cirque du Soleil - 2009 - Cirque du Soleil 25 - CD02 Dynamique [FLAC]\10 - One love.wav

Peak level 95.6 % Track quality 100.0 % Test CRC 30A6AED9 Copy CRC 30A6AED9 Accurately ripped (confidence 1) [2A496237] Copy OK

Track 11

Filename C:\Rips\Cirque du Soleil - 2009 - Cirque du Soleil 25 - CD02 Dynamique [FLAC]\11 - Hum Jaisa Na Dekha.wav

Peak level 93.4 % Track quality 100.0 % Test CRC 35D56DB9 Copy CRC 35D56DB9 Accurately ripped (confidence 1) [70E3E164] Copy OK

Track 12

Filename C:\Rips\Cirque du Soleil - 2009 - Cirque du Soleil 25 - CD02 Dynamique [FLAC]\12 - Utinam.wav

Peak level 98.8 % Track quality 100.0 % Test CRC A808A4BC Copy CRC A808A4BC Accurately ripped (confidence 1) [64CF880D] Copy OK

All tracks accurately ripped

No errors occurred

End of status report
Двухдисковое издание, посвященное юбилею Цирка Солнца. Релиз стянут с "ваты" (Uploaded by smiloid).


Трекер:  [ 07-Июл-2011 23:05 ]

  

Скачать .torrent

Размер .torrent файла 32 KB


Размер: 728 MB
Хэш (hash) релиза: 0ef99b8900fc4018e0f46c8d94f4c27ef68821df

Еще никто не оставлял запись к записи скачать торрент Cirque Du Soleil - 25 . Будь первым!

!Обратная связь