Скачать через торрент музыку Легенды Ночных Стражей Legend of the Guardians: The Owls of GaHoole бесплатно без регистрации torrent

Статистика раздачи
Размер:  339 MB   |    Зарегистрирован:  7 лет 10 месяцев   |    .torrent скачан:  63 раза   |   
Раздают:  1  
   
загрузка...
 
Автор Сообщение

AqvaGen


Легенды Ночных Стражей / Legend of the Guardians: The Owls of Ga'Hoole

Жанр: Score
Композитор: David Hirschfelder
Год выпуска диска: 2010
Страна-производитель диска: USA
Издатель (лейбл): WaterTower Music
Номер по каталогу: WTM39211
EAN/UPC: 794043145957

Аудио кодек: FLAC (*.flac)
Тип рипа: image+.cue
Битрейт аудио: lossless
Продолжительность: 60:23

Наличие сканов в содержимом раздачи: да (600dpi)
01. Owl City / To The Sky [0:03:37.22]
02. David Hirschfelder / Flight Home (The Guardian Theme) [0:03:51.60]
03. David Hirschfelder / Taken To St. Aggeles [0:05:37.24]
04. David Hirschfelder / Welcome To The Pellatorium [0:04:51.28]
05. David Hirschfelder / A Long Way To The Guardians [0:05:57.32]
06. David Hirschfelder / You Know Were Flying [0:02:36.77]
07. David Hirschfelder / The Boy Was Right [0:04:04.58]
08. David Hirschfelder / Sharpen The Battle Claws [0:06:22.26]
09. David Hirschfelder / Follow The Whales Fin [0:05:11.09]
10. David Hirschfelder / Into Battle [0:05:07.48]
11. Dead Can Dance / The Host Of Seraphim [0:06:20.08]
12. David Hirschfelder / My Soldiers My Sons [0:03:27.37]
13. David Hirschfelder / More Baggy Wrinkles [0:03:19.57]

 
Exact Audio Copy V0.99 prebeta 5 from 4. May 2009

EAC extraction logfile from 10. November 2010, 9:12

Various / Legend Of The Guardians: The Owls Of Ga'hoole - Soundtrack

Used drive : HL-DT-STDVDRAM_GSA-T20N Adapter: 0 ID: 0

Read mode : SecureUtilize accurate stream : YesDefeat audio cache : YesMake use of C2 pointers : No

Read offset correction : 667Overread into Lead-In and Lead-Out : NoFill up missing offset samples with silence : YesDelete leading and trailing silent blocks : NoNull samples used in CRC calculations : YesUsed interface : Native Win32 interface for Win NT & 2000

Used output format : User Defined EncoderSelected bitrate : 1024 kBit/sQuality : HighAdd ID3 tag : NoCommand line compressor : C:\Program Files\Exact Audio Copy\Flac\flac.exeAdditional command line options : -8 -V %s

TOC of the extracted CD

Track | Start | Length | Start sector | End sector --------------------------------------------------------- 1 | 0:00.00 | 3:37.17 | 0 | 16291 2 | 3:37.17 | 3:51.45 | 16292 | 33661 3 | 7:28.62 | 5:37.18 | 33662 | 58954 4 | 13:06.05 | 4:51.21 | 58955 | 80800 5 | 17:57.26 | 5:57.24 | 80801 | 107599 6 | 23:54.50 | 2:36.58 | 107600 | 119357 7 | 26:31.33 | 4:04.44 | 119358 | 137701 8 | 30:36.02 | 6:22.20 | 137702 | 166371 9 | 36:58.22 | 5:11.07 | 166372 | 189703 10 | 42:09.29 | 5:07.36 | 189704 | 212764 11 | 47:16.65 | 6:20.06 | 212765 | 241270 12 | 53:36.71 | 3:27.28 | 241271 | 256823 13 | 57:04.24 | 3:19.43 | 256824 | 271791

Range status and errors

Selected range

Filename C:\Music\Various - Legend Of The Guardians The Owls Of Ga'hoole - Soundtrack.wav

Peak level 99.5 % Range quality 100.0 % Test CRC 4B9720DE Copy CRC 4B9720DE Copy OK

No errors occurred

AccurateRip summary

Track 1 accurately ripped (confidence 1) [A1084F5F]Track 2 accurately ripped (confidence 1) [CB9C094E]Track 3 accurately ripped (confidence 1) [278E7F78]Track 4 accurately ripped (confidence 1) [C4C72AFF]Track 5 accurately ripped (confidence 1) [B8F2CE99]Track 6 accurately ripped (confidence 1) [A5044953]Track 7 accurately ripped (confidence 1) [2EF37BE2]Track 8 accurately ripped (confidence 1) [9AFE4179]Track 9 accurately ripped (confidence 1) [D75E3EFA]Track 10 accurately ripped (confidence 1) [29FCA551]Track 11 accurately ripped (confidence 1) [2352C282]Track 12 accurately ripped (confidence 1) [89BA3D62]Track 13 accurately ripped (confidence 1) [611EEFC2]

All tracks accurately ripped

End of status report


Трекер:  [ 29-Дек-2010 22:42 ]

  

Скачать .torrent

Размер .torrent файла 14 KB


Размер: 339 MB
Хэш (hash) релиза: 2e3e9a3c9a7f48bbdfd3e157a705838a561b2bab

Торренты, похожие на Легенды Ночных Стражей Legend of the Guardians: The Owls of GaHoole скачать торрент

Форум Название Автор Размер S L Добавлен
Саундтреки к фильмам и мультфильмам (mp3) ·· (Score) Легенды ночных стражей / Legend of the Guardians: The Owls of Ga'Hoole (by David Hirschfelder) - 2010, MP3 (tracks), 320 kbps Mos 154504503147 MB 0 0 1291090182

07:09

30-Ноя-10

bot

Топик был перенесен в форум Саундтреки к фильмам и мультфильмам (lossless)

Перенес AqvaGen

Хотите добавить комментарий к записи скачать торрент Легенды Ночных Стражей Legend of the Guardians: The Owls of GaHoole

!Обратная связь