Скачать через торрент музыку Побег из тюрьмы Prison Break бесплатно без регистрации torrent

Статистика раздачи
Размер:  311 MB   |    Зарегистрирован:  7 лет 7 месяцев   |    .torrent скачан:  66 раз   |   
Раздают:  1  
   
загрузка...
 
Автор Сообщение

AqvaGen


Побег из тюрьмы / Prison Break

Страна: USA
Жанр: Score
Год выпуска: 2007
Формат: FLAC (tracks)
Битрейт аудио: lossless (577 kbps)
Продолжительность: 56:48
Трэклист:
1. Main Titles
2. Strings of Prisoners
3. Inking The Plan
4. Save A Brother's Life
5. In The Yard
6. T-Bag's Coming For Dinner
7. Sucre's Dilemma
8. Sarah & Michael
9. Abruzzi Is The Ticket
10. In The Tunnels
11. Unconditional
12. Conspiracy
13. Sarah
14. C-Note
15. An In-Be-Tweener
16. Prison Break
17. The Manhunt Begins
18. Special Agent Mahone
19. Veronica Is Murdered
20. Linc & Li
21. Stand-Off
22. Cat & Mouse
23. (Classified)
24. Remorse
25. Origami
26. Escape Is Just The Beginning
27. Panama
28. Maricruz
29. Execution
30. Trouble In Paradise
31. Sona
Автор: Ramin Djawadi
Лейбл: Colosseum
Дата релиза: 31, August 2007
Альбом: Prison Break Original Soundtrack
Качество: *LOSSLESS* (EAC, CUE, FLAC, Covers, Log)
Exact Audio Copy V0.99 prebeta 3 from 28. July 2007

EAC extraction logfile from 4. October 2007, 16:40

Ramin Djawadi / Prison Break

Used drive : LITE-ON CD-RW SOHR-5238S Adapter: 0 ID: 3

Read mode : Secure
Utilize accurate stream : Yes
Defeat audio cache : Yes
Make use of C2 pointers : No

Read offset correction : 6
Overread into Lead-In and Lead-Out : No
Fill up missing offset samples with silence : Yes
Delete leading and trailing silent blocks : No
Null samples used in CRC calculations : Yes
Used interface : Installed external ASPI interface

Used output format : Internal WAV Routines
Sample format : 44.100 Hz; 16 Bit; Stereo

TOC of the extracted CD

Track | Start | Length | Start sector | End sector
---------------------------------------------------------
1 | 0:00.00 | 2:29.57 | 0 | 11231
2 | 2:29.57 | 1:27.63 | 11232 | 17819
3 | 3:57.45 | 2:37.61 | 17820 | 29655
4 | 6:35.31 | 1:52.06 | 29656 | 38061
5 | 8:27.37 | 1:45.54 | 38062 | 45990
6 | 10:13.16 | 1:43.56 | 45991 | 53771
7 | 11:56.72 | 2:26.13 | 53772 | 64734
8 | 14:23.10 | 1:43.52 | 64735 | 72511
9 | 16:06.62 | 1:57.28 | 72512 | 81314
10 | 18:04.15 | 2:56.45 | 81315 | 94559
11 | 21:00.60 | 2:19.44 | 94560 | 105028
12 | 23:20.29 | 2:41.16 | 105029 | 117119
13 | 26:01.45 | 2:44.32 | 117120 | 129451
14 | 28:46.02 | 2:07.46 | 129452 | 139022
15 | 30:53.48 | 3:12.48 | 139023 | 153470
16 | 34:06.21 | 3:33.25 | 153471 | 169470
17 | 37:39.46 | 2:15.21 | 169471 | 179616
18 | 39:54.67 | 1:23.49 | 179617 | 185890
19 | 41:18.41 | 1:49.07 | 185891 | 194072
20 | 43:07.48 | 2:04.55 | 194073 | 203427
21 | 45:12.28 | 1:58.58 | 203428 | 212335
22 | 47:11.11 | 1:33.57 | 212336 | 219367
23 | 48:44.68 | 2:02.70 | 219368 | 228587
24 | 50:47.63 | 2:30.19 | 228588 | 239856
25 | 53:18.07 | 1:03.33 | 239857 | 244614
26 | 54:21.40 | 2:11.19 | 244615 | 254458
27 | 56:32.59 | 1:21.61 | 254459 | 260594
28 | 57:54.45 | 1:09.22 | 260595 | 265791
29 | 59:03.67 | 1:49.33 | 265792 | 273999
30 | 60:53.25 | 1:18.65 | 274000 | 279914
31 | 62:12.15 | 1:35.37 | 279915 | 287076

Range status and errors

Selected range

Filename C:\Documents and Settings\HansK\Desktop\Ramin Djawadi - Prison Break.wav

Peak level 98.3 %
Range quality 99.9 %
Copy CRC BFDCDC01
Copy OK

No errors occurred

AccurateRip summary

Track 1 not present in database
Track 2 not present in database
Track 3 not present in database
Track 4 not present in database
Track 5 not present in database
Track 6 not present in database
Track 7 not present in database
Track 8 not present in database
Track 9 not present in database
Track 10 not present in database
Track 11 not present in database
Track 12 not present in database
Track 13 not present in database
Track 14 not present in database
Track 15 not present in database
Track 16 not present in database
Track 17 not present in database
Track 18 not present in database
Track 19 not present in database
Track 20 not present in database
Track 21 not present in database
Track 22 not present in database
Track 23 not present in database
Track 24 not present in database
Track 25 not present in database
Track 26 not present in database
Track 27 not present in database
Track 28 not present in database
Track 29 not present in database
Track 30 not present in database
Track 31 not present in database

None of the tracks are present in the AccurateRip database

End of status report


Трекер:  [ 06-Апр-2011 11:05 ]

  

Скачать .torrent

Размер .torrent файла 15 KB


Размер: 311 MB
Хэш (hash) релиза: d7576d1645668ee8e413c3871d0a6f3b69d9e0fc

Торренты, похожие на Побег из тюрьмы Prison Break скачать торрент

Форум Название Автор Размер S L Добавлен
Саундтреки к фильмам и мультфильмам (mp3) ·· [Soundtrack / Unofficial] Побег из тюрьмы | Prison Break [2005-2009, MP3, 320 kbps] Galfimbul 382022021364 MB 0 0 1429431385

11:16

19-Апр-15

Саундтреки к фильмам и мультфильмам (mp3) ·· (Soundtrack) Побег из Тюрьмы / Prison Break Season 2 [2006 г.] Galfimbul 7831874475 MB 0 0 1292266449

21:54

13-Дек-10

Саундтреки к фильмам и мультфильмам (mp3) ·· (soundtrack) Побег из тюрьмы / Prison Break (Пол Шойринг) 1-4 seasons - 2007, MP3 (tracks), 192 kbps Galfimbul 112173237107 MB 0 0 1292265414

21:36

13-Дек-10

Саундтреки к фильмам и мультфильмам (mp3) ·· (Score) Побег из тюрьмы / Prison Break (Ramin Djawadi) - 2007, MP3 (tracks), 320 kbps Phoenix 198277288189 MB 0 0 1292265337

21:35

13-Дек-10

Саундтреки к фильмам и мультфильмам (mp3) ·· [Soundtrack / Unofficial] Побег из тюрьмы (Сезоны 1-5) | Prison Break (Seasons 1-5) [2005-2017, MP3, 320 kbps] Galfimbul 430562975411 MB 0 0 1518338568

11:42

11-Фев-18

Саундтреки к фильмам и мультфильмам (mp3) ·· (Soundtrack) Prison Break - Faf Larage (Single) / Побег из тюрьмы - Faf Larage (Single) - 2006, MP3 , 256 kbps Mos 2245708321 MB 0 0 1292268066

22:21

13-Дек-10

Саундтреки к фильмам и мультфильмам (mp3) ·· (Score) Побег из тюрьмы (сезоны 3 & 4) / Prison Break (seasons 3 & 4) (by Ramin Djawadi) - 2009, MP3, 320 kbps Galfimbul 117068290112 MB 0 0 1292265779

21:42

13-Дек-10

bot

Топик был перенесен в форум Саундтреки к фильмам и мультфильмам (lossless)

Перенес AqvaGen

Хотите добавить комментарий к записи скачать торрент Побег из тюрьмы Prison Break

!Обратная связь