Скачать через торрент музыку Тачки Cars - 2006, FLAC бесплатно без регистрации torrent

Статистика раздачи
Размер:  305 MB   |    Зарегистрирован:  7 лет 4 месяца   |    .torrent скачан:  59 раз   |   
Раздают:  1  
   
загрузка...
 
Автор Сообщение

Galfimbul

avatar Galfimbul


Тачки / Cars

Страна: США
Жанр: Soundtrack
Год выпуска: 2006
Формат: FLAC (tracks+.cue)
Битрейт аудио: lossless
Продолжительность: 0:57:27
Трэклист:
1. Sheryl Crow - Real Gone (3:22)
2. Chuck Berry - Route 66 (2:52)
3. Rascal Flatts - Life Is A Highway (4:36)
4. Brad Paisley - Behind The Clouds (4:09)
5. James Taylor - Our Town (4:07)
6. The Chords - Sh - Boom (2:25)
7. John Mayer - Route 66 (Extended Film Version) (8:32)
8. Brad Paisley - Find Yourself (4:11)
9. Score - Opening Races (2:04)
10. Score - Mcqueens Lost (2:28)
11. Hank Williams - My Heart Would Know (2:27)
12. Score - Bessie (0:58)
13. Score - Dirt Is Different (1:27)
14. Score - New Road (1:17)
15. Score - Tractor Tipping (1:21)
16. Score - Mcqueen And Sally (2:00)
17. Score - Goodbye (2:42)
18. Score - Pre - Race Pageantry (1:30)
19. Score - The Piston Cup (1:52)
20. Score - The Big Race (3:07)
Доп. информация:
 
EAC extraction logfile from 15. December 2006, 10:18 for CDCars / Movie Soundtrack

Used drive : _NEC DVD_RW ND-3520AW Adapter: 1 ID: 0Read mode : Secure with NO C2, accurate stream, disable cacheRead offset correction : 48Overread into Lead-In and Lead-Out : No

Used output format : c:\utils\flac.exe (User Defined Encoder) 320 kBit/s Additional command line options : -8 -A tukey(0.25) -A gauss(0.1875) -b 4096 -V -T "artist=%a" -T "title=%t" -T "album=%g" -T "date=%y" -T "tracknumber=%n" -T "genre=%m" %s

Other options : Fill up missing offset samples with silence : Yes Delete leading and trailing silent blocks : No Native Win32 interface for Win NT & 2000

Track 1 Filename M:\TEMP\01 - Sheryl Crow - Real Gone.wav

Pre-gap length 0:00:02.00

Peak level 97.7 % Track quality 100.0 % Test CRC 3A3F08A5 Copy CRC 3A3F08A5 Copy OK

Track 2 Filename M:\TEMP\02 - Chuck Berry - Route 66.wav

Pre-gap length 0:00:01.15

Peak level 95.5 % Track quality 100.0 % Test CRC 01303F28 Copy CRC 01303F28 Copy OK

Track 3 Filename M:\TEMP\03 - Rascal Flatts - Life Is a Highway.wav

Pre-gap length 0:00:01.02

Peak level 97.7 % Track quality 100.0 % Test CRC BD0AE2F1 Copy CRC BD0AE2F1 Copy OK

Track 4 Filename M:\TEMP\04 - Brad Paisley - Behind the Clouds.wav

Pre-gap length 0:00:01.10

Peak level 97.7 % Track quality 100.0 % Test CRC CC41B75A Copy CRC CC41B75A Copy OK

Track 5 Filename M:\TEMP\05 - James Taylor - Our Town.wav

Peak level 96.6 % Track quality 100.0 % Test CRC 9B0EBB53 Copy CRC 9B0EBB53 Copy OK

Track 6 Filename M:\TEMP\06 - The Chords - Sh-Boom.wav

Peak level 86.1 % Track quality 100.0 % Test CRC 58AA734E Copy CRC 58AA734E Copy OK

Track 7 Filename M:\TEMP\07 - John Mayer - Route 66.wav

Peak level 97.7 % Track quality 100.0 % Test CRC 898450B0 Copy CRC 898450B0 Copy OK

Track 8 Filename M:\TEMP\08 - Brad Paisley - Find Yourself.wav

Peak level 97.7 % Track quality 100.0 % Test CRC BE6CFDF8 Copy CRC BE6CFDF8 Copy OK

Track 9 Filename M:\TEMP\09 - Randy Newman - Opening Race.wav

Pre-gap length 0:00:01.05

Peak level 97.7 % Track quality 100.0 % Test CRC A50AB998 Copy CRC A50AB998 Copy OK

Track 10 Filename M:\TEMP\10 - Randy Newman - McQueen's Lost.wav

Peak level 98.8 % Track quality 99.9 % Test CRC E0BF5BE0 Copy CRC E0BF5BE0 Copy OK

Track 11 Filename M:\TEMP\11 - Hank Williams - My Heart Would Know.wav

Peak level 61.6 % Track quality 100.0 % Test CRC 66C57C92 Copy CRC 66C57C92 Copy OK

Track 12 Filename M:\TEMP\12 - Randy Newman - Bessie.wav

Pre-gap length 0:00:02.02

Peak level 97.7 % Track quality 100.0 % Test CRC F38ACD02 Copy CRC F38ACD02 Copy OK

Track 13 Filename M:\TEMP\13 - Randy Newman - Dirt is Different.wav

Peak level 97.7 % Track quality 99.8 % Test CRC E13319D0 Copy CRC E13319D0 Copy OK

Track 14 Filename M:\TEMP\14 - Randy Newman - New Road.wav

Pre-gap length 0:00:01.02

Peak level 96.8 % Track quality 100.0 % Test CRC 5233D5F3 Copy CRC 5233D5F3 Copy OK

Track 15 Filename M:\TEMP\15 - Randy Newman - Tractor Tipping.wav

Peak level 97.7 % Track quality 100.0 % Test CRC 3214365A Copy CRC 3214365A Copy OK

Track 16 Filename M:\TEMP\16 - Randy Newman - McQueen and Sally.wav

Pre-gap length 0:00:01.22

Peak level 97.7 % Track quality 100.0 % Test CRC 90ED7992 Copy CRC 90ED7992 Copy OK

Track 17 Filename M:\TEMP\17 - Randy Newman - Goodbye.wav

Pre-gap length 0:00:01.07

Peak level 73.9 % Track quality 100.0 % Test CRC 2D4C2A8F Copy CRC 2D4C2A8F Copy OK

Track 18 Filename M:\TEMP\18 - Randy Newman - Pre-Race Pageantry.wav

Pre-gap length 0:00:01.18

Peak level 97.7 % Track quality 100.0 % Test CRC DD79E0AD Copy CRC DD79E0AD Copy OK

Track 19 Filename M:\TEMP\19 - Randy Newman - The Piston Cup.wav

Pre-gap length 0:00:01.07

Peak level 97.7 % Track quality 100.0 % Test CRC 64EAD68F Copy CRC 64EAD68F Copy OK

Track 20 Filename M:\TEMP\20 - Randy Newman - The Big Race.wav

Peak level 97.7 % Track quality 100.0 % Test CRC 446DFBDF Copy CRC 446DFBDF Copy OK

No errors occured

End of status report


Трекер:  [ 07-Июл-2011 23:04 ]

  

Скачать .torrent

Размер .torrent файла 25 KB


Размер: 305 MB
Хэш (hash) релиза: 9fdc8a9830e1520eced77b2a253e7538644167e1

Еще никто не оставлял запись к записи скачать торрент Тачки Cars - 2006, FLAC . Будь первым!

!Обратная связь