Скачать через торрент музыку Predators Хищники бесплатно без регистрации torrent

Статистика раздачи
Размер:  375 MB   |    Зарегистрирован:  7 лет 10 месяцев   |    .torrent скачан:  47 раз   |   
Раздают:  1  
   
загрузка...
 
Автор Сообщение

AqvaGen


Predators / Хищники

Жанр: Score
Композитор: John Debney
Год выпуска диска / фильма: 2010
Страна-производитель диска: США
Издатель (лейбл): La-La Land Records
Номер по каталогу: LLLCD 1141

Аудио кодек: FLAC (*.flac)
Тип рипа: tracks+.cue
Битрейт аудио: lossless
Продолжительность: 1:08:37

Наличие сканов в содержимом раздачи: да
Треклист:
01. Free Fall * (03:06)
02. Single Shooter * (02:08)
03. This Is Hell * (04:10)
04. Cages / Trip-Wire (03:51)
05. Not Of This Earth (02:50)
06. Hound Attack (04:08)
07. We Run We Die (04:39)
08. Predator Attack * (01:46)
09. Meet Mr. Black (01:15)
10. They See Our Traps * (02:26)
11. Over Here (02:24)
12. Smoke * (02:38)
13. Nikolai Blows * (02:10)
14. Stans' Last Stand (01:49)
15. Hanzo's Last Stand * (03:08)
16. Leg Trap (02:22)
17. Take Me To The Ship (02:04)
18. Edwin And Isabelle Captured * (01:33)
19. Predator Fight / Royce Runs (03:15)
20. Twisted Edwin / Royce Returns (03:25)
21. She's Paralyzed * (06:05)
22. Royce Vs. Predator (02:39)
23. Let's Get Off This Planet (03:01)
24. Theme From "Predator" * (01:45)
 
Exact Audio Copy V0.99 prebeta 5 from 4. May 2009

EAC extraction logfile from 12. August 2010, 3:02

John Debney / Predators

Used drive : _NEC DVD+-RW ND-6500A Adapter: 1 ID: 0

Read mode : SecureUtilize accurate stream : YesDefeat audio cache : YesMake use of C2 pointers : No

Read offset correction : 48Overread into Lead-In and Lead-Out : NoFill up missing offset samples with silence : YesDelete leading and trailing silent blocks : NoNull samples used in CRC calculations : YesUsed interface : Native Win32 interface for Win NT & 2000Gap handling : Appended to previous track

Used output format : User Defined EncoderSelected bitrate : 128 kBit/sQuality : HighAdd ID3 tag : NoCommand line compressor : C:\Program Files\Exact Audio Copy\Flac\flac.exeAdditional command line options : -V -8 -T "artist=%a" -T "title=%t" -T "album=%g" -T "date=%y" -T "tracknumber=%n" -T "genre=%m" %s

TOC of the extracted CD

Track | Start | Length | Start sector | End sector --------------------------------------------------------- 1 | 0:00.13 | 3:06.24 | 13 | 13986 2 | 3:06.37 | 2:07.55 | 13987 | 23566 3 | 5:14.17 | 4:09.62 | 23567 | 42303 4 | 9:24.04 | 3:51.17 | 42304 | 59645 5 | 13:15.21 | 2:50.30 | 59646 | 72425 6 | 16:05.51 | 4:08.35 | 72426 | 91060 7 | 20:14.11 | 4:39.07 | 91061 | 111992 8 | 24:53.18 | 1:46.18 | 111993 | 119960 9 | 26:39.36 | 1:14.45 | 119961 | 125555 10 | 27:54.06 | 2:25.71 | 125556 | 136501 11 | 30:20.02 | 2:23.49 | 136502 | 147275 12 | 32:43.51 | 2:37.70 | 147276 | 159120 13 | 35:21.46 | 2:09.55 | 159121 | 168850 14 | 37:31.26 | 1:48.71 | 168851 | 177021 15 | 39:20.22 | 3:08.12 | 177022 | 191133 16 | 42:28.34 | 2:22.31 | 191134 | 201814 17 | 44:50.65 | 2:04.02 | 201815 | 211116 18 | 46:54.67 | 1:33.24 | 211117 | 218115 19 | 48:28.16 | 3:14.51 | 218116 | 232716 20 | 51:42.67 | 3:25.30 | 232717 | 248121 21 | 55:08.22 | 6:04.63 | 248122 | 275484 22 | 61:13.10 | 2:38.73 | 275485 | 287407 23 | 63:52.08 | 3:00.39 | 287408 | 300946 24 | 66:52.47 | 1:45.30 | 300947 | 308851

Track 1

Filename C:\temp_rips\John Debney - Predators (2010) [FLAC]\01 - Free Fall.wav

Pre-gap length 0:00:02.17

Peak level 97.1 % Track quality 100.0 % Test CRC 1EE64D49 Copy CRC 1EE64D49 Track not present in AccurateRip database Copy OK

Track 2

Filename C:\temp_rips\John Debney - Predators (2010) [FLAC]\02 - Single Shooter.wav

Pre-gap length 0:00:01.29

Peak level 98.4 % Track quality 100.0 % Test CRC 11AC4CE9 Copy CRC 11AC4CE9 Track not present in AccurateRip database Copy OK

Track 3

Filename C:\temp_rips\John Debney - Predators (2010) [FLAC]\03 - This Is Hell.wav

Pre-gap length 0:00:00.33

Peak level 94.4 % Track quality 100.0 % Test CRC F60BB460 Copy CRC F60BB460 Track not present in AccurateRip database Copy OK

Track 4

Filename C:\temp_rips\John Debney - Predators (2010) [FLAC]\04 - Cages,Trip-Wire.wav

Pre-gap length 0:00:00.46

Peak level 97.2 % Track quality 100.0 % Test CRC 3CF5099C Copy CRC 3CF5099C Track not present in AccurateRip database Copy OK

Track 5

Filename C:\temp_rips\John Debney - Predators (2010) [FLAC]\05 - Not Of This Earth.wav

Pre-gap length 0:00:01.01

Peak level 94.4 % Track quality 100.0 % Test CRC AA8167B9 Copy CRC AA8167B9 Track not present in AccurateRip database Copy OK

Track 6

Filename C:\temp_rips\John Debney - Predators (2010) [FLAC]\06 - Hound Attack.wav

Pre-gap length 0:00:00.42

Peak level 97.6 % Track quality 100.0 % Test CRC EE6E8050 Copy CRC EE6E8050 Track not present in AccurateRip database Copy OK

Track 7

Filename C:\temp_rips\John Debney - Predators (2010) [FLAC]\07 - We Run We Die.wav

Pre-gap length 0:00:00.34

Peak level 99.8 % Track quality 100.0 % Test CRC C03CAE3C Copy CRC C03CAE3C Track not present in AccurateRip database Copy OK

Track 8

Filename C:\temp_rips\John Debney - Predators (2010) [FLAC]\08 - Predator Attack.wav

Pre-gap length 0:00:00.48

Peak level 94.4 % Track quality 99.8 % Test CRC 6D2A3FF2 Copy CRC 6D2A3FF2 Track not present in AccurateRip database Copy OK

Track 9

Filename C:\temp_rips\John Debney - Predators (2010) [FLAC]\09 - Meet Mr. Black.wav

Pre-gap length 0:00:00.16

Peak level 94.4 % Track quality 100.0 % Test CRC C366AFF3 Copy CRC C366AFF3 Track not present in AccurateRip database Copy OK

Track 10

Filename C:\temp_rips\John Debney - Predators (2010) [FLAC]\10 - They See Our Traps.wav

Pre-gap length 0:00:00.37

Peak level 97.8 % Track quality 100.0 % Test CRC 9032B7C0 Copy CRC 9032B7C0 Track not present in AccurateRip database Copy OK

Track 11

Filename C:\temp_rips\John Debney - Predators (2010) [FLAC]\11 - Over Here.wav

Peak level 94.4 % Track quality 100.0 % Test CRC 1906BAD7 Copy CRC 1906BAD7 Track not present in AccurateRip database Copy OK

Track 12

Filename C:\temp_rips\John Debney - Predators (2010) [FLAC]\12 - Smoke.wav

Peak level 96.5 % Track quality 100.0 % Test CRC A0F24D8B Copy CRC A0F24D8B Track not present in AccurateRip database Copy OK

Track 13

Filename C:\temp_rips\John Debney - Predators (2010) [FLAC]\13 - Nikolai Blows.wav

Peak level 94.4 % Track quality 100.0 % Test CRC 18238584 Copy CRC 18238584 Track not present in AccurateRip database Copy OK

Track 14

Filename C:\temp_rips\John Debney - Predators (2010) [FLAC]\14 - Stans' Last Stand.wav

Peak level 94.6 % Track quality 100.0 % Test CRC C172C0D7 Copy CRC C172C0D7 Track not present in AccurateRip database Copy OK

Track 15

Filename C:\temp_rips\John Debney - Predators (2010) [FLAC]\15 - Hanzo's Last Stand.wav

Pre-gap length 0:00:00.49

Peak level 96.5 % Track quality 100.0 % Test CRC 86435076 Copy CRC 86435076 Track not present in AccurateRip database Copy OK

Track 16

Filename C:\temp_rips\John Debney - Predators (2010) [FLAC]\16 - Leg Trap.wav

Pre-gap length 0:00:00.32

Peak level 95.0 % Track quality 100.0 % Test CRC 402A94E9 Copy CRC 402A94E9 Track not present in AccurateRip database Copy OK

Track 17

Filename C:\temp_rips\John Debney - Predators (2010) [FLAC]\17 - Take Me To The Ship.wav

Pre-gap length 0:00:00.21

Peak level 94.4 % Track quality 100.0 % Test CRC 00A4A8A2 Copy CRC 00A4A8A2 Track not present in AccurateRip database Copy OK

Track 18

Filename C:\temp_rips\John Debney - Predators (2010) [FLAC]\18 - Edwin And Isabelle Captured.wav

Pre-gap length 0:00:00.08

Peak level 94.4 % Track quality 99.8 % Test CRC E5DDF152 Copy CRC E5DDF152 Track not present in AccurateRip database Copy OK

Track 19

Filename C:\temp_rips\John Debney - Predators (2010) [FLAC]\19 - Predator Fight, Royce Runs.wav

Pre-gap length 0:00:01.58

Peak level 94.4 % Track quality 100.0 % Test CRC ECA32135 Copy CRC ECA32135 Track not present in AccurateRip database Copy OK

Track 20

Filename C:\temp_rips\John Debney - Predators (2010) [FLAC]\20 - Twisted Edwin,Royce Returns.wav

Pre-gap length 0:00:00.46

Peak level 94.3 % Track quality 100.0 % Test CRC C446991F Copy CRC C446991F Track not present in AccurateRip database Copy OK

Track 21

Filename C:\temp_rips\John Debney - Predators (2010) [FLAC]\21 - She's Paralyzed.wav

Pre-gap length 0:00:00.01

Peak level 94.7 % Track quality 100.0 % Test CRC F320D54C Copy CRC F320D54C Track not present in AccurateRip database Copy OK

Track 22

Filename C:\temp_rips\John Debney - Predators (2010) [FLAC]\22 - Royce Vs. Predator.wav

Pre-gap length 0:00:00.73

Peak level 94.4 % Track quality 100.0 % Test CRC BA6A5934 Copy CRC BA6A5934 Track not present in AccurateRip database Copy OK

Track 23

Filename C:\temp_rips\John Debney - Predators (2010) [FLAC]\23 - Let's Get Off This Planet.wav

Pre-gap length 0:00:00.29

Peak level 94.4 % Track quality 100.0 % Test CRC 197E20FF Copy CRC 197E20FF Track not present in AccurateRip database Copy OK

Track 24

Filename C:\temp_rips\John Debney - Predators (2010) [FLAC]\24 - Theme From Predator.wav

Peak level 94.4 % Track quality 100.0 % Test CRC 8598F932 Copy CRC 8598F932 Track not present in AccurateRip database Copy OK

None of the tracks are present in the AccurateRip database

No errors occurred

End of status report
 
REM GENRE SoundtrackREM DATE 2010REM DISCID 53101618REM COMMENT "ExactAudioCopy v0.99pb5"PERFORMER "John Debney"TITLE "Predators"FILE "01 - Free Fall.wav" WAVE TRACK 01 AUDIO TITLE "Free Fall" PERFORMER "John Debney" PREGAP 00:00:13 INDEX 01 00:00:00 TRACK 02 AUDIO TITLE "Single Shooter" PERFORMER "John Debney" INDEX 00 03:05:02FILE "02 - Single Shooter.wav" WAVE INDEX 01 00:00:00 TRACK 03 AUDIO TITLE "This Is Hell" PERFORMER "John Debney" INDEX 00 02:07:30FILE "03 - This Is Hell.wav" WAVE INDEX 01 00:00:00 TRACK 04 AUDIO TITLE "Cages/Trip-Wire" PERFORMER "John Debney" INDEX 00 04:09:27FILE "04 - Cages,Trip-Wire.wav" WAVE INDEX 01 00:00:00 TRACK 05 AUDIO TITLE "Not Of This Earth" PERFORMER "John Debney" INDEX 00 03:50:16FILE "05 - Not Of This Earth.wav" WAVE INDEX 01 00:00:00 TRACK 06 AUDIO TITLE "Hound Attack" PERFORMER "John Debney" INDEX 00 02:49:73FILE "06 - Hound Attack.wav" WAVE INDEX 01 00:00:00 TRACK 07 AUDIO TITLE "We Run We Die" PERFORMER "John Debney" INDEX 00 04:08:09FILE "07 - We Run We Die.wav" WAVE INDEX 01 00:00:00 TRACK 08 AUDIO TITLE "Predator Attack" PERFORMER "John Debney" INDEX 00 04:38:46FILE "08 - Predator Attack.wav" WAVE INDEX 01 00:00:00 TRACK 09 AUDIO TITLE "Meet Mr. Black" PERFORMER "John Debney" INDEX 00 01:46:06FILE "09 - Meet Mr. Black.wav" WAVE INDEX 01 00:00:00 TRACK 10 AUDIO TITLE "They See Our Traps" PERFORMER "John Debney" INDEX 00 01:14:17FILE "10 - They See Our Traps.wav" WAVE INDEX 01 00:00:00FILE "11 - Over Here.wav" WAVE TRACK 11 AUDIO TITLE "Over Here" PERFORMER "John Debney" INDEX 01 00:00:00FILE "12 - Smoke.wav" WAVE TRACK 12 AUDIO TITLE "Smoke" PERFORMER "John Debney" INDEX 01 00:00:00FILE "13 - Nikolai Blows.wav" WAVE TRACK 13 AUDIO TITLE "Nikolai Blows" PERFORMER "John Debney" INDEX 01 00:00:00FILE "14 - Stans' Last Stand.wav" WAVE TRACK 14 AUDIO TITLE "Stans' Last Stand" PERFORMER "John Debney" INDEX 01 00:00:00 TRACK 15 AUDIO TITLE "Hanzo's Last Stand" PERFORMER "John Debney" INDEX 00 01:48:34FILE "15 - Hanzo's Last Stand.wav" WAVE INDEX 01 00:00:00 TRACK 16 AUDIO TITLE "Leg Trap" PERFORMER "John Debney" INDEX 00 03:07:63FILE "16 - Leg Trap.wav" WAVE INDEX 01 00:00:00 TRACK 17 AUDIO TITLE "Take Me To The Ship" PERFORMER "John Debney" INDEX 00 02:22:15FILE "17 - Take Me To The Ship.wav" WAVE INDEX 01 00:00:00 TRACK 18 AUDIO TITLE "Edwin And Isabelle Captured" PERFORMER "John Debney" INDEX 00 02:03:71FILE "18 - Edwin And Isabelle Captured.wav" WAVE INDEX 01 00:00:00 TRACK 19 AUDIO TITLE "Predator Fight, Royce Runs" PERFORMER "John Debney" INDEX 00 01:31:55FILE "19 - Predator Fight, Royce Runs.wav" WAVE INDEX 01 00:00:00 TRACK 20 AUDIO TITLE "Twisted Edwin/Royce Returns" PERFORMER "John Debney" INDEX 00 03:14:16FILE "20 - Twisted Edwin,Royce Returns.wav" WAVE INDEX 01 00:00:00 TRACK 21 AUDIO TITLE "She's Paralyzed" PERFORMER "John Debney" INDEX 00 03:25:29FILE "21 - She's Paralyzed.wav" WAVE INDEX 01 00:00:00 TRACK 22 AUDIO TITLE "Royce Vs. Predator" PERFORMER "John Debney" INDEX 00 06:04:08FILE "22 - Royce Vs. Predator.wav" WAVE INDEX 01 00:00:00 TRACK 23 AUDIO TITLE "Let's Get Off This Planet" PERFORMER "John Debney" INDEX 00 02:38:51FILE "23 - Let's Get Off This Planet.wav" WAVE INDEX 01 00:00:00FILE "24 - Theme From Predator.wav" WAVE TRACK 24 AUDIO TITLE "Theme From Predator" PERFORMER "John Debney" INDEX 01 00:00:00


Трекер:  [ 29-Дек-2010 22:41 ]

  

Скачать .torrent

Размер .torrent файла 17 KB


Размер: 375 MB
Хэш (hash) релиза: 8b5c87937e35be667171f459043c5aeaa8e0c6ec

Торренты, похожие на Predators Хищники скачать торрент

Форум Название Автор Размер S L Добавлен
Саундтреки к фильмам и мультфильмам (mp3) ·· (Soundtrack) Predator / Хищник - 1987, MP3 (tracks), 320 kbps Galfimbul 175906331168 MB 0 0 1292265889

21:44

13-Дек-10

Саундтреки к фильмам и мультфильмам (mp3) ·%· (Score) Хищник / Predator - Collection (by Alan Silvestri, John Debney) (9 Albums) - 1987-2014, MP3, 320 kbps Galfimbul 17574529401.64 GB 0 0 1530450381

16:06

1-Июл-18

Саундтреки ·· (Score) Хищник / Predator [Remastered] (by Alan Silvestri) - 2012 (1987), MP3, 320 kbps L 191224476182 MB 0 0 1336446180

06:03

8-Май-12

Саундтреки к фильмам и мультфильмам (lossless) ·· (Soundtrack) Хищник 2 / Predator 2 Alan Silvestri - 1990, FLAC (image + .cue) Galfimbul 239715027229 MB 0 0 1292268841

22:34

13-Дек-10

Саундтреки к фильмам и мультфильмам (mp3) ·· (Soundtrack) Хищники / Predators [2CD Original Demonstration Cues] (by John Debney) - 2010, MP3 (tracks), 320 kbps Phoenix 279656320267 MB 0 0 1292268254

22:24

13-Дек-10

Саундтреки к фильмам и мультфильмам (mp3) ·· (Score) Alien Vs. Predator / Чужой против Хищника (Harald Kloser) - 2004, MP3 (tracks), 320 kbps Galfimbul 9259024088 MB 0 0 1292266224

21:50

13-Дек-10

Саундтреки к фильмам и мультфильмам (mp3) ·· (Score) Хищник / Predator [10th Anniversay Edition] (by Alan Silestri) - 1997 (1987), MP3 (tracks), 320 kbps Galfimbul 192056889183 MB 0 0 1292265762

21:42

13-Дек-10

Саундтреки к фильмам и мультфильмам (mp3) ·· (Score) Хищник / Predator [Limited Edition] (by Alan Silvestri) - 2010 (1987), MP3 (tracks), 320 kbps Galfimbul 179603062171 MB 0 0 1292265680

21:41

13-Дек-10

bot

Топик был перенесен в форум Саундтреки к фильмам и мультфильмам (lossless)

Перенес AqvaGen

Хотите добавить комментарий к записи скачать торрент Predators Хищники

!Обратная связь