Скачать через торрент музыку Ennio Morricone - Belmondo бесплатно без регистрации torrent

Статистика раздачи
Размер:  654 MB   |    Зарегистрирован:  6 лет 9 месяцев   |    .torrent скачан:  83 раза   |   
Раздают:  1  
   
загрузка...
 
Автор Сообщение

Galfimbul

avatar Galfimbul


Morricone-Belmondo - Le Professionnel / Le Marginal / Le Casse - 2CD

Жанр: Soundtrack
Год выпуска диска: 1999
Производитель диска: Italy / USA
Аудио кодек: FLAC
Тип рипа: tracks+.cue
Битрейт аудио: lossless
Продолжительность: 72.55 + 50.00 min.
Трэклист:


DISC 1 - Le Professionnel / Le Marginal

01 The Wind, The Scream - First Theme (The Professional)
02 Bach - First variation (The Professional)
03 The Wind, The Scream - First variation (The Professional)
04 Final Decision (The Professional)
05 The Wind, The Scream - Second variation (The Professional)
06 Bach - Second variation (The Professional)
07 From Africa (The Professional)
08 The Return - On the name of Bach (The Professional)
09 Bach - Third variation (The Professional)
10 The Wind, The Scream - Third variation (The Professional)
11 The Wind, The Scream - Fourth variation (The Professional)
12 Morgan Le Fay - 2 interludes for harps (The Professional)
13 Who Me (The Professional)
14 The Wind, The Scream - Main Titles Movie version (The Professional) *
15 The Wind, The Scream - Alternative version (The Professional) *
16 The Outsider (The Outsider)
17 Classical Theme (The Outsider)
18 Dreamer (The Outsider)
19 H.S.M. (The Outsider)
20 Don't Think Twice (The Outsider)
21 For Carol (The Outsider)
22 Forecast (The Outsider) *
23 The Drugs and the Boy (The Outsider)

DISC 2 - Le Marginal / Le Casse

01 Hypertension - Part 1 (The Outsider)
02 Hypertension - Part 2 (The Outsider)
03 Conclusion (The Outsider)
04 Main Titles Movie version (The Outsider) *
05 Main Titles Alternative version (The Outsider) *
06 Main Theme (The Burglars)
07 Love Theme (The Burglars)
08 Marinella (The Burglars)
09 Argomenti (The Burglars)
10 For Zacharia (The Burglars)
11 The Daughter to the Edge (The Burglars)
12 Dangerous Turn (The Burglars)
13 But Not a Lot of Sex (The Burglars)
14 Rodeo (The Burglars)
15 One Woman Who Loves (The Burglars)
16 The Burglars (The Burglars) *

* - Previously Unreleased

Доп. информация: Двойной СD содержит музыку Морриконе к трем фильмам с Бельмондо: "Профессионал" - 1981, "Вне закона" - 1983 и "Взломщики" - 1971. Рип с оригинала, все сканы вложены.
Exact Audio Copy V0.99 prebeta 3 from 28. July 2007

Отчёт EAC об извлечении, выполненном 6. августа 2008, 17:35

Ennio Morricone / Classic Italian Soundtracks Morricone-Belmondo Disc 1

Дисковод: HL-DT-STDVDRAM GSA-E40N Adapter: 2 ID: 0

Режим чтения : Достоверность
Использование точного потока : Да
Отключение кэша аудио : Да
Использование указателей C2 : Нет

Коррекция смещения при чтении : 667
Способность читать области Lead-in и Lead-out : Нет
Заполнение пропущенных сэмплов тишиной : Да
Удаление блоков с тишиной в начале и конце : Нет
При вычислениях CRC использовались нулевые сэмплы : Да
Интерфейс : Встроенный Win32-интерфейс для Win NT/2000
Обработка зазоров : Не обнаружено, добавлено к предыдущему треку

Выходной формат : Пользовательский кодировщик
Выбранный битрейт : 768 kBit/s
Качество : Высокий
Добавление ID3-тэга : Нет
Утилита сжатия : C:\Program Files\Exact Audio Copy\FLAC\FLAC.EXE
Дополнительные параметры : -6 -V -T "ARTIST=%a" -T "TITLE=%t" -T "ALBUM=%g" -T "DATE=%y" -T "TRACKNUMBER=%n" -T "GENRE=%m" -T "COMMENT=%e" %s -o %d

TOC извлечённого CD

Трек | Старт | Длительность | Начальный сектор | Конечный сектор
---------------------------------------------------------------------
1 | 0:00.00 | 5:17.55 | 0 | 23829
2 | 5:17.55 | 1:20.73 | 23830 | 29902
3 | 6:38.53 | 0:27.71 | 29903 | 31998
4 | 7:06.49 | 1:25.00 | 31999 | 38373
5 | 8:31.49 | 2:15.14 | 38374 | 48512
6 | 10:46.63 | 1:47.74 | 48513 | 56611
7 | 12:34.62 | 2:13.40 | 56612 | 66626
8 | 14:48.27 | 5:31.28 | 66627 | 91479
9 | 20:19.55 | 1:30.62 | 91480 | 98291
10 | 21:50.42 | 0:40.54 | 98292 | 101345
11 | 22:31.21 | 1:20.31 | 101346 | 107376
12 | 23:51.52 | 4:57.09 | 107377 | 129660
13 | 28:48.61 | 3:30.27 | 129661 | 145437
14 | 32:19.13 | 1:51.67 | 145438 | 153829
15 | 34:11.05 | 2:44.46 | 153830 | 166175
16 | 36:55.51 | 6:21.03 | 166176 | 194753
17 | 43:16.54 | 4:54.03 | 194754 | 216806
18 | 48:10.57 | 4:08.55 | 216807 | 235461
19 | 52:19.37 | 2:36.38 | 235462 | 247199
20 | 54:56.00 | 4:16.51 | 247200 | 266450
21 | 59:12.51 | 2:59.15 | 266451 | 279890
22 | 62:11.66 | 4:19.36 | 279891 | 299351
23 | 66:31.27 | 6:22.01 | 299352 | 328002

Трек 1

Имя файла D:\Музыка\Torrents\Morricone-Belmondo 2CD\CD 1\Ennio Morricone-(01)The Wind, The Scream - First Theme (The Professional).wav

Пиковый уровень 76.7 %
Качество трека 100.0 %
CRC копии 1D98B103
Копирование... OK

Трек 2

Имя файла D:\Музыка\Torrents\Morricone-Belmondo 2CD\CD 1\Ennio Morricone-(02)Bach - First variation (The Professional).wav

Пиковый уровень 76.0 %
Качество трека 100.0 %
CRC копии 44D30ACB
Копирование... OK

Трек 3

Имя файла D:\Музыка\Torrents\Morricone-Belmondo 2CD\CD 1\Ennio Morricone-(03)The Wind, The Scream - First variation (The Professional).wav

Пиковый уровень 25.2 %
Качество трека 100.0 %
CRC копии ED3FC8B3
Копирование... OK

Трек 4

Имя файла D:\Музыка\Torrents\Morricone-Belmondo 2CD\CD 1\Ennio Morricone-(04)Final Decision (The Professional).wav

Пиковый уровень 57.5 %
Качество трека 99.8 %
CRC копии 149BD6D5
Копирование... OK

Трек 5

Имя файла D:\Музыка\Torrents\Morricone-Belmondo 2CD\CD 1\Ennio Morricone-(05)The Wind, The Scream - Second variation (The Professional).wav

Пиковый уровень 75.4 %
Качество трека 100.0 %
CRC копии 1EF7AACB
Копирование... OK

Трек 6

Имя файла D:\Музыка\Torrents\Morricone-Belmondo 2CD\CD 1\Ennio Morricone-(06)Bach - Second variation (The Professional).wav

Пиковый уровень 52.9 %
Качество трека 100.0 %
CRC копии 2AF694C0
Копирование... OK

Трек 7

Имя файла D:\Музыка\Torrents\Morricone-Belmondo 2CD\CD 1\Ennio Morricone-(07)From Africa (The Professional).wav

Пиковый уровень 49.4 %
Качество трека 100.0 %
CRC копии 07EACD55
Копирование... OK

Трек 8

Имя файла D:\Музыка\Torrents\Morricone-Belmondo 2CD\CD 1\Ennio Morricone-(08)The Return - On the name of Bach (The Professional).wav

Пиковый уровень 71.3 %
Качество трека 99.9 %
CRC копии AB61B548
Копирование... OK

Трек 9

Имя файла D:\Музыка\Torrents\Morricone-Belmondo 2CD\CD 1\Ennio Morricone-(09)Bach - Third variation (The Professional).wav

Пиковый уровень 30.8 %
Качество трека 100.0 %
CRC копии B3192A56
Копирование... OK

Трек 10

Имя файла D:\Музыка\Torrents\Morricone-Belmondo 2CD\CD 1\Ennio Morricone-(10)The Wind, The Scream - Third variation (The Professional).wav

Пиковый уровень 63.9 %
Качество трека 100.0 %
CRC копии D0063DE7
Копирование... OK

Трек 11

Имя файла D:\Музыка\Torrents\Morricone-Belmondo 2CD\CD 1\Ennio Morricone-(11)The Wind, The Scream - Fourth variation (The Professional).wav

Пиковый уровень 49.4 %
Качество трека 100.0 %
CRC копии AF2123FF
Копирование... OK

Трек 12

Имя файла D:\Музыка\Torrents\Morricone-Belmondo 2CD\CD 1\Ennio Morricone-(12)Morgan Le Fay - 2 interludes for harps (The Professional).wav

Пиковый уровень 36.9 %
Качество трека 100.0 %
CRC копии 27C458C5
Копирование... OK

Трек 13

Имя файла D:\Музыка\Torrents\Morricone-Belmondo 2CD\CD 1\Ennio Morricone-(13)Who Me (The Professional).wav

Пиковый уровень 81.4 %
Качество трека 100.0 %
CRC копии 8528A13B
Копирование... OK

Трек 14

Имя файла D:\Музыка\Torrents\Morricone-Belmondo 2CD\CD 1\Ennio Morricone-(14)The Wind, The Scream - Main Titles Movie version (The Professional).wav

Пиковый уровень 76.8 %
Качество трека 99.9 %
CRC копии 7B71B437
Копирование... OK

Трек 15

Имя файла D:\Музыка\Torrents\Morricone-Belmondo 2CD\CD 1\Ennio Morricone-(15)The Wind, The Scream - Alternative version (The Professional).wav

Пиковый уровень 73.4 %
Качество трека 100.0 %
CRC копии CBAA2764
Копирование... OK

Трек 16

Имя файла D:\Музыка\Torrents\Morricone-Belmondo 2CD\CD 1\Ennio Morricone-(16)The Outsider (The Outsider).wav

Пиковый уровень 76.6 %
Качество трека 100.0 %
CRC копии 4E8ABA5F
Копирование... OK

Трек 17

Имя файла D:\Музыка\Torrents\Morricone-Belmondo 2CD\CD 1\Ennio Morricone-(17)Classical Theme (The Outsider).wav

Пиковый уровень 75.0 %
Качество трека 100.0 %
CRC копии 7B4D9751
Копирование... OK

Трек 18

Имя файла D:\Музыка\Torrents\Morricone-Belmondo 2CD\CD 1\Ennio Morricone-(18)Dreamer (The Outsider).wav

Пиковый уровень 75.0 %
Качество трека 99.9 %
CRC копии D5DEDF1B
Копирование... OK

Трек 19

Имя файла D:\Музыка\Torrents\Morricone-Belmondo 2CD\CD 1\Ennio Morricone-(19)H.S.M. (The Outsider).wav

Пиковый уровень 91.6 %
Качество трека 100.0 %
CRC копии 92FC0B15
Копирование... OK

Трек 20

Имя файла D:\Музыка\Torrents\Morricone-Belmondo 2CD\CD 1\Ennio Morricone-(20)Don't Think Twice (The Outsider).wav

Пиковый уровень 93.4 %
Качество трека 99.9 %
CRC копии 003F369D
Копирование... OK

Трек 21

Имя файла D:\Музыка\Torrents\Morricone-Belmondo 2CD\CD 1\Ennio Morricone-(21)For Carol (The Outsider).wav

Пиковый уровень 74.1 %
Качество трека 100.0 %
CRC копии AF366F5B
Копирование... OK

Трек 22

Имя файла D:\Музыка\Torrents\Morricone-Belmondo 2CD\CD 1\Ennio Morricone-(22)Forecast (The Outsider).wav

Пиковый уровень 82.7 %
Качество трека 100.0 %
CRC копии ED850E72
Копирование... OK

Трек 23

Имя файла D:\Музыка\Torrents\Morricone-Belmondo 2CD\CD 1\Ennio Morricone-(23)The Drugs and the Boy (The Outsider).wav

Пиковый уровень 73.7 %
Качество трека 100.0 %
CRC копии 3ED680AE
Копирование... OK

Ошибок не произошло

Конец отчёта
Exact Audio Copy V0.99 prebeta 3 from 28. July 2007

Отчёт EAC об извлечении, выполненном 6. августа 2008, 17:12

Ennio Morricone / Classic Italian Soundtracks Morricone-Belmondo Disc 2

Дисковод: HL-DT-STDVDRAM GSA-E40N Adapter: 2 ID: 0

Режим чтения : Достоверность
Использование точного потока : Да
Отключение кэша аудио : Да
Использование указателей C2 : Нет

Коррекция смещения при чтении : 667
Способность читать области Lead-in и Lead-out : Нет
Заполнение пропущенных сэмплов тишиной : Да
Удаление блоков с тишиной в начале и конце : Нет
При вычислениях CRC использовались нулевые сэмплы : Да
Интерфейс : Встроенный Win32-интерфейс для Win NT/2000
Обработка зазоров : Не обнаружено, добавлено к предыдущему треку

Выходной формат : Пользовательский кодировщик
Выбранный битрейт : 768 kBit/s
Качество : Высокий
Добавление ID3-тэга : Нет
Утилита сжатия : C:\Program Files\Exact Audio Copy\FLAC\FLAC.EXE
Дополнительные параметры : -6 -V -T "ARTIST=%a" -T "TITLE=%t" -T "ALBUM=%g" -T "DATE=%y" -T "TRACKNUMBER=%n" -T "GENRE=%m" -T "COMMENT=%e" %s -o %d

TOC извлечённого CD

Трек | Старт | Длительность | Начальный сектор | Конечный сектор
---------------------------------------------------------------------
1 | 0:00.00 | 3:09.43 | 0 | 14217
2 | 3:09.43 | 1:58.23 | 14218 | 23090
3 | 5:07.66 | 6:24.09 | 23091 | 51899
4 | 11:32.00 | 2:10.01 | 51900 | 61650
5 | 13:42.01 | 1:53.38 | 61651 | 70163
6 | 15:35.39 | 3:20.17 | 70164 | 85180
7 | 18:55.56 | 3:10.03 | 85181 | 99433
8 | 22:05.59 | 1:39.12 | 99434 | 106870
9 | 23:44.71 | 3:40.04 | 106871 | 123374
10 | 27:25.00 | 2:56.19 | 123375 | 136593
11 | 30:21.19 | 2:26.13 | 136594 | 147556
12 | 32:47.32 | 3:21.32 | 147557 | 162663
13 | 36:08.64 | 3:45.54 | 162664 | 179592
14 | 39:54.43 | 4:22.66 | 179593 | 199308
15 | 44:17.34 | 2:57.65 | 199309 | 212648
16 | 47:15.24 | 2:41.66 | 212649 | 224789

Трек 1

Имя файла D:\Музыка\Torrents\Morricone-Belmondo 2CD\Ennio Morricone-(01)Hypertension - Part 1 (The Outsider).wav

Пиковый уровень 58.7 %
Качество трека 99.9 %
CRC копии 23807E10
Копирование... OK

Трек 2

Имя файла D:\Музыка\Torrents\Morricone-Belmondo 2CD\Ennio Morricone-(02)Hypertension - Part 2 (The Outsider).wav

Пиковый уровень 96.7 %
Качество трека 100.0 %
CRC копии 5A7F12D4
Копирование... OK

Трек 3

Имя файла D:\Музыка\Torrents\Morricone-Belmondo 2CD\Ennio Morricone-(03)Conclusion (The Outsider).wav

Пиковый уровень 86.4 %
Качество трека 100.0 %
CRC копии D7B6E956
Копирование... OK

Трек 4

Имя файла D:\Музыка\Torrents\Morricone-Belmondo 2CD\Ennio Morricone-(04)Main Titles Movie version (The Outsider).wav

Пиковый уровень 82.9 %
Качество трека 100.0 %
CRC копии C56D7F4D
Копирование... OK

Трек 5

Имя файла D:\Музыка\Torrents\Morricone-Belmondo 2CD\Ennio Morricone-(05)Main Titles Alternative version (The Outsider).wav

Пиковый уровень 90.5 %
Качество трека 100.0 %
CRC копии 8B41CFC6
Копирование... OK

Трек 6

Имя файла D:\Музыка\Torrents\Morricone-Belmondo 2CD\Ennio Morricone-(06)Main Theme (The Burglars).wav

Пиковый уровень 51.4 %
Качество трека 99.9 %
CRC копии 62CDBACD
Копирование... OK

Трек 7

Имя файла D:\Музыка\Torrents\Morricone-Belmondo 2CD\Ennio Morricone-(07)Love Theme (The Burglars).wav

Пиковый уровень 58.7 %
Качество трека 100.0 %
CRC копии 42F590A6
Копирование... OK

Трек 8

Имя файла D:\Музыка\Torrents\Morricone-Belmondo 2CD\Ennio Morricone-(08)Marinella (The Burglars).wav

Пиковый уровень 60.3 %
Качество трека 100.0 %
CRC копии D2764166
Копирование... OK

Трек 9

Имя файла D:\Музыка\Torrents\Morricone-Belmondo 2CD\Ennio Morricone-(09)Argomenti (The Burglars).wav

Пиковый уровень 62.9 %
Качество трека 100.0 %
CRC копии 8E3205D4
Копирование... OK

Трек 10

Имя файла D:\Музыка\Torrents\Morricone-Belmondo 2CD\Ennio Morricone-(10)For Zacharia (The Burglars).wav

Пиковый уровень 54.1 %
Качество трека 100.0 %
CRC копии DFE66FD9
Копирование... OK

Трек 11

Имя файла D:\Музыка\Torrents\Morricone-Belmondo 2CD\Ennio Morricone-(11)The Daughter to the Edge (The Burglars).wav

Пиковый уровень 57.1 %
Качество трека 100.0 %
CRC копии 434DF8DD
Копирование... OK

Трек 12

Имя файла D:\Музыка\Torrents\Morricone-Belmondo 2CD\Ennio Morricone-(12)Dangerous Turn (The Burglars).wav

Пиковый уровень 59.8 %
Качество трека 100.0 %
CRC копии F2936807
Копирование... OK

Трек 13

Имя файла D:\Музыка\Torrents\Morricone-Belmondo 2CD\Ennio Morricone-(13)But Not a Lot of Sex (The Burglars).wav

Пиковый уровень 66.6 %
Качество трека 100.0 %
CRC копии 76318800
Копирование... OK

Трек 14

Имя файла D:\Музыка\Torrents\Morricone-Belmondo 2CD\Ennio Morricone-(14)Rodeo (The Burglars).wav

Пиковый уровень 62.0 %
Качество трека 100.0 %
CRC копии 459E3397
Копирование... OK

Трек 15

Имя файла D:\Музыка\Torrents\Morricone-Belmondo 2CD\Ennio Morricone-(15)One Woman Who Loves (The Burglars).wav

Пиковый уровень 59.6 %
Качество трека 100.0 %
CRC копии 828C84E8
Копирование... OK

Трек 16

Имя файла D:\Музыка\Torrents\Morricone-Belmondo 2CD\Ennio Morricone-(16)The Burglars (The Burglars).wav

Пиковый уровень 73.4 %
Качество трека 100.0 %
CRC копии C711E036
Копирование... OK

Ошибок не произошло

Конец отчёта


Трекер:  [ 07-Июл-2011 23:03 ]

  

Скачать .torrent

Размер .torrent файла 18 KB


Размер: 654 MB
Хэш (hash) релиза: 1b3d9878ca742f094d8da8e1a114b34cf5aec9ad

Еще никто не оставлял запись к записи скачать торрент Ennio Morricone - Belmondo . Будь первым!

!Обратная связь