Скачать через торрент музыку Serendipity Интуиция - 2001, FLAC бесплатно без регистрации torrent

Статистика раздачи
Размер:  315 MB   |    Зарегистрирован:  7 лет 8 месяцев   |    .torrent скачан:  96 раз   |   
Раздают:  1  
   
загрузка...
 
Автор Сообщение

AqvaGen


Serendipity / Интуиция
Жанр: Soundtrack
Год выпуска диска: 2001
Производитель диска: USA
Аудио кодек: FLAC
Тип рипа: tracks+.cue
Битрейт аудио: lossless
Продолжительность: 47:13

Трэклист:

01. Wood - Never A Day
02. Bap Kennedy - Moonlight Kiss
03. David Gray - January Rain
04. Annie Lennox,Steven Lipson - Waiting In Vain
05. Evan And Jaron - The Distance (Serendipity Version)
06. Heather Nova - Like Lovers Do
07. Shawn Colvin - When You Know
08. Nick Drake - Northern Sky
09. Louis Armstrong - Cool Yule
10. Chantal Kreviazuk - This Year
11. Brian Whitman - (There's) Always Something There To Remind Me
12. John Mayer - 83
13. Alan Silvestri - Fast Forward
Exact Audio Copy V0.99 prebeta 5 from 4. May 2009

EAC extraction logfile from 14. August 2009, 14:36

Various / Serendipity

Used drive : Optiarc DVD RW AD-7170A Adapter: 0 ID: 0

Read mode : Secure
Utilize accurate stream : Yes
Defeat audio cache : Yes
Make use of C2 pointers : No

Read offset correction : 48
Overread into Lead-In and Lead-Out : No
Fill up missing offset samples with silence : Yes
Delete leading and trailing silent blocks : No
Null samples used in CRC calculations : Yes
Used interface : Native Win32 interface for Win NT & 2000
Gap handling : Appended to previous track

Used output format : User Defined Encoder
Selected bitrate : 320 kBit/s
Quality : High
Add ID3 tag : No
Command line compressor : C:\Program Files\Exact Audio Copy\Flac\flac.exe
Additional command line options : -8 -V -T "ARTIST=%a" -T "TITLE=%t" -T "ALBUM=%g" -T "DATE=%y" -T "TRACKNUMBER=%n" -T "GENRE=%m" -T "COMMENT=EAC FLAC -8" %s

TOC of the extracted CD

Track | Start | Length | Start sector | End sector
---------------------------------------------------------
1 | 0:00.00 | 3:25.22 | 0 | 15396
2 | 3:25.22 | 3:01.52 | 15397 | 29023
3 | 6:26.74 | 2:40.04 | 29024 | 41027
4 | 9:07.03 | 5:37.53 | 41028 | 66355
5 | 14:44.56 | 4:21.28 | 66356 | 85958
6 | 19:06.09 | 4:08.00 | 85959 | 104558
7 | 23:14.09 | 3:04.04 | 104559 | 118362
8 | 26:18.13 | 3:43.25 | 118363 | 135112
9 | 30:01.38 | 2:54.69 | 135113 | 148231
10 | 32:56.32 | 2:43.73 | 148232 | 160529
11 | 35:40.30 | 3:56.14 | 160530 | 178243
12 | 39:36.44 | 4:48.20 | 178244 | 199863
13 | 44:24.64 | 2:48.64 | 199864 | 212527

Track 1

Filename K:\SoundTrack_Serendipity\01. Wood – Never A Day.wav

Pre-gap length 0:00:02.00

Peak level 92.3 %
Track quality 100.0 %
Test CRC F448DBD5
Copy CRC F448DBD5
Copy OK

Track 2

Filename K:\SoundTrack_Serendipity\02. Bap Kennedy – Moonlight Kiss.wav

Peak level 97.7 %
Track quality 100.0 %
Test CRC 802C3000
Copy CRC 802C3000
Copy OK

Track 3

Filename K:\SoundTrack_Serendipity\03. David Gray – January Rain.wav

Peak level 88.0 %
Track quality 99.9 %
Test CRC 12BD271C
Copy CRC 12BD271C
Copy OK

Track 4

Filename K:\SoundTrack_Serendipity\04. Annie Lennox,Steven Lipson – Waiting In Vain.wav

Peak level 97.7 %
Track quality 99.9 %
Test CRC 283476D4
Copy CRC 283476D4
Copy OK

Track 5

Filename K:\SoundTrack_Serendipity\05. Evan And Jaron – The Distance (Serendipity Version).wav

Peak level 97.7 %
Track quality 100.0 %
Test CRC B2B789FA
Copy CRC B2B789FA
Copy OK

Track 6

Filename K:\SoundTrack_Serendipity\06. Heather Nova – Like Lovers Do.wav

Peak level 97.7 %
Track quality 100.0 %
Test CRC F952EFDB
Copy CRC F952EFDB
Copy OK

Track 7

Filename K:\SoundTrack_Serendipity\07. Shawn Colvin – When You Know.wav

Peak level 97.7 %
Track quality 100.0 %
Test CRC B7574757
Copy CRC B7574757
Copy OK

Track 8

Filename K:\SoundTrack_Serendipity\08. Nick Drake – Northern Sky.wav

Peak level 92.2 %
Track quality 100.0 %
Test CRC CDF2DF43
Copy CRC CDF2DF43
Copy OK

Track 9

Filename K:\SoundTrack_Serendipity\09. Louis Armstrong – Cool Yule.wav

Peak level 38.9 %
Track quality 100.0 %
Test CRC BFA30367
Copy CRC BFA30367
Copy OK

Track 10

Filename K:\SoundTrack_Serendipity\10. Chantal Kreviazuk – This Year.wav

Peak level 97.7 %
Track quality 100.0 %
Test CRC 00B16811
Copy CRC 00B16811
Copy OK

Track 11

Filename K:\SoundTrack_Serendipity\11. Brian Whitman – (There's) Always Something There To Remind Me.wav

Peak level 97.7 %
Track quality 100.0 %
Test CRC 77967B77
Copy CRC 77967B77
Copy OK

Track 12

Filename K:\SoundTrack_Serendipity\12. John Mayer – 83.wav

Peak level 92.3 %
Track quality 100.0 %
Test CRC 4B55AFB1
Copy CRC 4B55AFB1
Copy OK

Track 13

Filename K:\SoundTrack_Serendipity\13. Alan Silvestri – Fast Forward.wav

Peak level 97.7 %
Track quality 100.0 %
Test CRC 9AE54C6B
Copy CRC 9AE54C6B
Copy OK

No errors occurred

End of status report



Трекер:  [ 06-Апр-2011 12:58 ]

  

Скачать .torrent

Размер .torrent файла 14 KB


Размер: 315 MB
Хэш (hash) релиза: 975326fd6b0a349a2a204d20b1caf7a71e97aada

bot

Топик был перенесен в форум Саундтреки к фильмам и мультфильмам (lossless)

Перенес AqvaGen

Хотите добавить комментарий к записи скачать торрент Serendipity Интуиция - 2001, FLAC

!Обратная связь