Скачать через торрент музыку A Thousand Roads by Lisa Gerrard & Jeff Rona - 2005, FLAC бесплатно без регистрации torrent

Статистика раздачи
Размер:  312 MB   |    Зарегистрирован:  6 лет 9 месяцев   |    .torrent скачан:  53 раза   |   
Раздают:  1  
   
загрузка...
 
Автор Сообщение

Galfimbul

avatar Galfimbul


A Thousand Roads by Lisa Gerrard & Jeff Rona (OST)

Страна: USA

Жанр: World Music, Ethnic

Год выпуска: 2005

Формат: FLAC (tracks)

Битрейт аудио: 757/757 kbps

Продолжительность: 57:38

Трэклист:

01. Good Morning Indian Country
02. Rowing Warriors
03. Canyons Of Manhattan
04. Coming To Barrow
05. All Your Relatives
06. Dawn Across The Snow
07. The Northern Lights
08. Johnny In The Dark
09. Walk In Beauty's Way
10. A Healer's Life
11. Who Are We To Say
12. A Thousand Roads
13. End Titles
14. Who Are We To Say (Vocal)
15. Shaman's Call
16. Nemi
17. Mahk Jchi
18. All My Relations
19. Song Of The Trees/Warm Springs Honouring
20. Crazy Horse
В августе 2005 года вышла в свет новая работа Лизы Жеррард к документальному фильму, снятому по заказу Smithsonian Museum of Native Americans и повествующему, как несложно догадаться, о проблемах индейцев, об их культуре и нынешней жизни. Стоит удивиться, как только Лиза всё успевает - тур воссоединенных на время Dead Can Dance по Европе и написание музыки. Но факт есть факт - режиссер фильма Chris Eyre, воодушевленный музыкой Лизы к фильму "Whale Rider" и, попросив через лос-анджелевского композитора Джеффа Рона, поучаствовать её в написании музыки, получил прекрасную атмосферную музыкальную работу, которая и без видеоряда обладает замечательными "визуальными" качествами! Резюмируя, скажу - альбом достойный внимания как почитателей творчества Dead Can Dance в силу узнаваемого вокала Лизы, так и прочих любителей музыки на грани этники, эмбиента и симфонизма, проще говоря - хорошей "музыки настроения".
EAC extraction logfile from 26. July 2007, 17:03 for CD
Lisa Gerrard & Jeff Rona / A Thousand Roads

Used drive : _NEC DVD_RW ND-3551A Adapter: 0 ID: 0
Read mode : Secure with NO C2, accurate stream, disable cache
Read offset correction : 48
Overread into Lead-In and Lead-Out : No

Used output format : C:\Program Files\Exact Audio Copy\flac.exe (User Defined Encoder)
320 kBit/s
Additional command line options : -5 -V -T "ARTIST=%a" -T "TITLE=%t" -T "ALBUM=%g" -T "DATE=%y" -T "TRACKNUMBER=%n" -T "GENRE=%m" -T "COMMENT=EAC Flac 1.1.2 -5" %s

Other options :
Fill up missing offset samples with silence : Yes
Delete leading and trailing silent blocks : No
Installed external ASPI interface

Track 1
Filename F:\Stuff\Lisa Gerrard & Jeff Rona - A Thousand Roads\01 - Good Morning Indian Country.wav

Peak level 97.1 %
Track quality 100.0 %
Test CRC 7F5CC2AF
Copy CRC 7F5CC2AF
Copy OK

Track 2
Filename F:\Stuff\Lisa Gerrard & Jeff Rona - A Thousand Roads\02 - Rowing Warriors.wav

Peak level 100.0 %
Track quality 99.8 %
Test CRC CB0016E2
Copy CRC CB0016E2
Copy OK

Track 3
Filename F:\Stuff\Lisa Gerrard & Jeff Rona - A Thousand Roads\03 - Canyons of Manhattan.wav

Peak level 98.4 %
Track quality 100.0 %
Test CRC F728C4E8
Copy CRC F728C4E8
Copy OK

Track 4
Filename F:\Stuff\Lisa Gerrard & Jeff Rona - A Thousand Roads\04 - Coming to Barrow.wav

Peak level 96.6 %
Track quality 100.0 %
Test CRC EF7CE0F7
Copy CRC EF7CE0F7
Copy OK

Track 5
Filename F:\Stuff\Lisa Gerrard & Jeff Rona - A Thousand Roads\05 - All Your Relatives.wav

Peak level 96.6 %
Track quality 100.0 %
Test CRC 5E7B9E46
Copy CRC 5E7B9E46
Copy OK

Track 6
Filename F:\Stuff\Lisa Gerrard & Jeff Rona - A Thousand Roads\06 - Dawn Across the Snow.wav

Peak level 96.6 %
Track quality 100.0 %
Test CRC E8122765
Copy CRC E8122765
Copy OK

Track 7
Filename F:\Stuff\Lisa Gerrard & Jeff Rona - A Thousand Roads\07 - The Northern Lights.wav

Peak level 96.6 %
Track quality 99.8 %
Test CRC 82BAA707
Copy CRC 82BAA707
Copy OK

Track 8
Filename F:\Stuff\Lisa Gerrard & Jeff Rona - A Thousand Roads\08 - Johnny in the Dark.wav

Peak level 92.2 %
Track quality 99.8 %
Test CRC C72A4D29
Copy CRC C72A4D29
Copy OK

Track 9
Filename F:\Stuff\Lisa Gerrard & Jeff Rona - A Thousand Roads\09 - Walk in a Beauty's Way.wav

Peak level 100.0 %
Track quality 100.0 %
Test CRC 9A1E0EB6
Copy CRC 9A1E0EB6
Copy OK

Track 10
Filename F:\Stuff\Lisa Gerrard & Jeff Rona - A Thousand Roads\10 - A Healer's Life.wav

Peak level 97.0 %
Track quality 100.0 %
Test CRC 2AAC6728
Copy CRC 2AAC6728
Copy OK

Track 11
Filename F:\Stuff\Lisa Gerrard & Jeff Rona - A Thousand Roads\11 - Who Are We to Say.wav

Peak level 100.0 %
Track quality 100.0 %
Test CRC 24A99071
Copy CRC 24A99071
Copy OK

Track 12
Filename F:\Stuff\Lisa Gerrard & Jeff Rona - A Thousand Roads\12 - A Thousand Roads.wav

Peak level 96.6 %
Track quality 100.0 %
Test CRC 770F114B
Copy CRC 770F114B
Copy OK

Track 13
Filename F:\Stuff\Lisa Gerrard & Jeff Rona - A Thousand Roads\13 - End Titles.wav

Peak level 96.6 %
Track quality 100.0 %
Test CRC C4E5E14E
Copy CRC C4E5E14E
Copy OK

Track 14
Filename F:\Stuff\Lisa Gerrard & Jeff Rona - A Thousand Roads\14 - Who are We to Say.wav

Peak level 97.5 %
Track quality 99.9 %
Test CRC 716F8653
Copy CRC 716F8653
Copy OK

Track 15
Filename F:\Stuff\Lisa Gerrard & Jeff Rona - A Thousand Roads\15 - Shaman's Call.wav

Peak level 53.8 %
Track quality 100.0 %
Test CRC A75EFC97
Copy CRC A75EFC97
Copy OK

Track 16
Filename F:\Stuff\Lisa Gerrard & Jeff Rona - A Thousand Roads\16 - Nemi.wav

Peak level 56.0 %
Track quality 100.0 %
Test CRC 4311DE52
Copy CRC 4311DE52
Copy OK

Track 17
Filename F:\Stuff\Lisa Gerrard & Jeff Rona - A Thousand Roads\17 - Mahk Jchi.wav

Peak level 100.0 %
Track quality 99.9 %
Test CRC 0A4DE179
Copy CRC 0A4DE179
Copy OK

Track 18
Filename F:\Stuff\Lisa Gerrard & Jeff Rona - A Thousand Roads\18 - All My Relations.wav

Peak level 79.4 %
Track quality 100.0 %
Test CRC 2950866F
Copy CRC 2950866F
Copy OK

Track 19
Filename F:\Stuff\Lisa Gerrard & Jeff Rona - A Thousand Roads\19 - Song of the Trees.wav

Peak level 94.4 %
Track quality 100.0 %
Test CRC 1B7E948F
Copy CRC 1B7E948F
Copy OK

Track 20
Filename F:\Stuff\Lisa Gerrard & Jeff Rona - A Thousand Roads\20 - Crazy Horse.wav

Peak level 95.6 %
Track quality 100.0 %
Test CRC 8A2C1B2E
Copy CRC 8A2C1B2E
Copy OK

No errors occured

End of status report
Dear guest, If you wish to thank me, please press this button


Трекер:  [ 07-Июл-2011 23:03 ]

  

Скачать .torrent

Размер .torrent файла 14 KB


Размер: 312 MB
Хэш (hash) релиза: 89fc357e7632e158063eaec7dd58b92bc507b1ab

Еще никто не оставлял запись к записи скачать торрент A Thousand Roads by Lisa Gerrard & Jeff Rona - 2005, FLAC . Будь первым!

!Обратная связь