Скачать через торрент музыку The Last Samurai by Hans Zimmer Последний самурай - 2003, APE бесплатно без регистрации torrent

Статистика раздачи
Размер:  296 MB   |    Зарегистрирован:  7 лет 1 месяц   |    .torrent скачан:  100 раз   |   
Раздают:  1  
   
загрузка...
 
Автор Сообщение

Galfimbul

avatar Galfimbul


Hans Zimmer - The Last Samurai/Последний самурай

Страна: USA
Жанр: Soundtrack
Год выпуска: 2003
Формат: APE (image + .cue)
Битрейт аудио: lossless
Продолжительность: 00:59:46
Трэклист:
01. Hans Zimmer - A Way of Life (8:04)
02. Hans Zimmer - Spectres in the Fog (4:08)
03. Hans Zimmer - Taken (3:36)
04. Hans Zimmer - A Hard Teacher (5:44)
05. Hans Zimmer - To Know My Enemy (4:49)
06. Hans Zimmer - Idyll's End (6:41)
07. Hans Zimmer - Safe Passage (4:57)
08. Hans Zimmer - Ronin (1:53)
09. Hans Zimmer - Red Warrior (3:56)
10. Hans Zimmer - The Way of the Sword (7:59)
11. Hans Zimmer - A Small Measure of Peace (8:00)
Exact Audio Copy V0.99 prebeta 3 from 28. July 2007

EAC extraction logfile from 5. October 2007, 21:12

Hans Zimmer / The Last Samurai

Used drive : LITE-ON CD-RW SOHR-5238S Adapter: 0 ID: 3

Read mode : Secure
Utilize accurate stream : Yes
Defeat audio cache : Yes
Make use of C2 pointers : No

Read offset correction : 6
Overread into Lead-In and Lead-Out : No
Fill up missing offset samples with silence : Yes
Delete leading and trailing silent blocks : No
Null samples used in CRC calculations : Yes
Used interface : Installed external ASPI interface

Used output format : Monkey's Audio Lossless Encoder
Selected bitrate : High Lossless Compression
Quality : High
Add ID3 tag : Yes
Command line compressor : C:\Program Files\Exact Audio Copy\MAC.exe

TOC of the extracted CD

Track | Start | Length | Start sector | End sector
---------------------------------------------------------
1 | 0:00.00 | 8:03.53 | 0 | 36277
2 | 8:03.53 | 4:07.38 | 36278 | 54840
3 | 12:11.16 | 3:35.74 | 54841 | 71039
4 | 15:47.15 | 5:44.36 | 71040 | 96875
5 | 21:31.51 | 4:48.62 | 96876 | 118537
6 | 26:20.38 | 6:40.58 | 118538 | 148595
7 | 33:01.21 | 4:56.61 | 148596 | 170856
8 | 37:58.07 | 1:53.03 | 170857 | 179334
9 | 39:51.10 | 3:56.07 | 179335 | 197041
10 | 43:47.17 | 7:59.01 | 197042 | 232967
11 | 51:46.18 | 7:59.51 | 232968 | 268943

Range status and errors

Selected range

Filename C:\Documents and Settings\HansK\Desktop\Hans Zimmer - The Last Samurai.wav

Peak level 98.8 %
Range quality 100.0 %
Copy CRC 6C6CBE63
Copy OK

No errors occurred

AccurateRip summary

Track 1 accurately ripped (confidence 8) [35D2FC5B]
Track 2 accurately ripped (confidence 8) [04247405]
Track 3 accurately ripped (confidence 8) [1059FF11]
Track 4 accurately ripped (confidence 8) [96D14F9E]
Track 5 accurately ripped (confidence 8) [680491CA]
Track 6 accurately ripped (confidence 8) [DB72A3F6]
Track 7 accurately ripped (confidence 8) [7F75DA8D]
Track 8 accurately ripped (confidence 8) [4CB2110C]
Track 9 accurately ripped (confidence 8) [3570CBE0]
Track 10 accurately ripped (confidence 8) [D929ED46]
Track 11 accurately ripped (confidence 7) [E2961932]

All tracks accurately ripped

End of status report


Трекер:  [ 07-Июл-2011 23:03 ]

  

Скачать .torrent

Размер .torrent файла 12 KB


Размер: 296 MB
Хэш (hash) релиза: 5c99b8dccfa29410fda4f27dd0c18c279824ac8f

Еще никто не оставлял запись к записи скачать торрент The Last Samurai by Hans Zimmer Последний самурай - 2003, APE . Будь первым!

!Обратная связь