Скачать через торрент музыку Whitney Houston - The Bodyguard - Original Soundtrack Album бесплатно без регистрации torrent

Статистика раздачи
Размер:  491 MB   |    Зарегистрирован:  7 лет 1 месяц   |    .torrent скачан:  86 раз   |   
Раздают:  1  
   
загрузка...
 
Автор Сообщение

Galfimbul

avatar Galfimbul


Whitney Houston - The Bodyguard - Original Soundtrack Album (Japan)

Жанр: Soundtrack
Год выпуска диска: 2008 (1992)
Производитель диска: Japan BMG BVCM-35271
Аудио кодек: FLAC
Тип рипа: image+.cue
Битрейт аудио: lossless
Продолжительность: 57:41

The Bodyguard:

01. I Will Always Love You / Whitney Houston
02. I Have Nothing / Whitney Houston
03. I'm Every Woman / Whitney Houston
04. Run To You / Whitney Houston
05. Queen Of The Night / Whitney Houston
06. Jesus Loves Me / Whitney Houston
07. Even If My Heart Would Break / Kenny G and Aaron Neville
08. Someday (I'm Coming Back) / Lisa Stansfield
09. It's Gonna Be A Lovely Day / The S.O.U.L. S.Y.S.T.E.M.
10. (What's So Funny 'Bout) Peace, Love And Understanding / Curtis Stigers
11. Waiting For You / Kenny G
12. Trust Me / Joe Cocker featuring Sass Jordan
13. Theme from The Bodyguard
 
Exact Audio Copy V0.99 prebeta 5 from 4. May 2009

EAC extraction logfile from 29. July 2009, 22:01

O.S.T. / The Bodyguard

Used drive : ASUS DRW-1608P Adapter: 2 ID: 0

Read mode : SecureUtilize accurate stream : YesDefeat audio cache : YesMake use of C2 pointers : No

Read offset correction : 48Overread into Lead-In and Lead-Out : NoFill up missing offset samples with silence : YesDelete leading and trailing silent blocks : NoNull samples used in CRC calculations : YesUsed interface : Installed external ASPI interface

Used output format : User Defined EncoderSelected bitrate : 1024 kBit/sQuality : HighAdd ID3 tag : NoCommand line compressor : C:\Program Files (x86)\Exact Audio Copy\Flac\flac.exeAdditional command line options : -5 -V -T "ARTIST=%a" -T "TITLE=%t" -T "ALBUM=%g" -T "DATE=%y" -T "TRACKNUMBER=%n" -T "GENRE=%m" -T "COMMENT=EAC FLAC -5" %s

TOC of the extracted CD

Track | Start | Length | Start sector | End sector --------------------------------------------------------- 1 | 0:00.00 | 4:31.42 | 0 | 20366 2 | 4:31.42 | 4:50.03 | 20367 | 42119 3 | 9:21.45 | 4:46.45 | 42120 | 63614 4 | 14:08.15 | 4:24.27 | 63615 | 83441 5 | 18:32.42 | 3:09.53 | 83442 | 97669 6 | 21:42.20 | 5:12.35 | 97670 | 121104 7 | 26:54.55 | 4:57.70 | 121105 | 143449 8 | 31:52.50 | 4:58.62 | 143450 | 165861 9 | 36:51.37 | 4:51.13 | 165862 | 187699 10 | 41:42.50 | 4:05.20 | 187700 | 206094 11 | 45:47.70 | 4:56.55 | 206095 | 228349 12 | 50:44.50 | 4:13.27 | 228350 | 247351 13 | 54:58.02 | 2:43.33 | 247352 | 259609

Range status and errors

Selected range

Filename F:\Whitney Houston - The Bodyguard (Japan)\O.S.T. - The Bodyguard.wav

Peak level 100.0 % Range quality 100.0 % Test CRC BAD785C8 Copy CRC BAD785C8 Copy OK

No errors occurred

AccurateRip summary

Track 1 not present in databaseTrack 2 not present in databaseTrack 3 not present in databaseTrack 4 not present in databaseTrack 5 not present in databaseTrack 6 not present in databaseTrack 7 not present in databaseTrack 8 not present in databaseTrack 9 not present in databaseTrack 10 not present in databaseTrack 11 not present in databaseTrack 12 not present in databaseTrack 13 not present in database

None of the tracks are present in the AccurateRip database

End of status report
СКАНЫ ВНУТРИ!!!

Трекер:  [ 07-Июл-2011 23:02 ]

  

Скачать .torrent

Размер .torrent файла 20 KB


Размер: 491 MB
Хэш (hash) релиза: 4ff3be7e2c0788b238575480e2859d7a78fc7e72

Еще никто не оставлял запись к записи скачать торрент Whitney Houston - The Bodyguard - Original Soundtrack Album . Будь первым!

!Обратная связь