Скачать через торрент музыку Paul Oakenfold Swordfish <<The Album>> - 2001, APE бесплатно без регистрации torrent

Статистика раздачи
Размер:  444 MB   |    Зарегистрирован:  6 лет 9 месяцев   |    .torrent скачан:  51 раз   |   
Раздают:  1  
   
загрузка...
 
Автор Сообщение

Galfimbul

avatar Galfimbul


Paul Oakenfold / Swordfish <<The Album>>

Жанр: саундтрек
Год выпуска диска: 2001
Аудио кодек: APE
Тип рипа: image+.cue
Страна:USA
Продолжительность: 1:10:45
Трэклист:
01 - Swordfish ST - Swordfish (intro)

02 - Dope Smugglaz - The world (PMT Remix)

03 - Jan Johnson - Unafraid (Paul Oakenfold Mix)

04 - Paul Oakenfold - Dark Machine

05 - Muse - New Born (Paul Oakenfold Mix)

06 - Paul OakenfoldChristofer Young - Chase

07 - Swordfish ST - Harry Houndini

08 - Lemon Jelly - Kneel Before your God

09 - Nerd - Lapdance (Paul Oakenfold Swordfish Mix)

10 - Paul Oakenfold - Speed

11 - Paul Oakenfold vs Afrika Bambaata & Soul Sonic Force - Planet Rock (Swordfish Mix)

12 - Paul OakenfoldChristofer Young - Stanley's Theme

13 - Paul Oakenfold - Password

14 - Patient Saints - On you Mind (Omaha Mix)

15 - Paul OakenfoldPlanet Perfection - Get out of my Life New
Доп. информация:
Exact Audio Copy V0.99 prebeta 4 from 23. January 2008

Отчёт EAC об извлечении, выполненном 15. июля 2008, 3:12

Paul Oakenfold / Swordfish <<The Album>>

Дисковод: TSSTcorpCDW/DVD TS-H492A Adapter: 1 ID: 0

Режим чтения : Достоверность
Использование точного потока : Да
Отключение кэша аудио : Да
Использование указателей C2 : Нет

Коррекция смещения при чтении : 6
Способность читать области Lead-in и Lead-out : Нет
Заполнение пропущенных сэмплов тишиной : Да
Удаление блоков с тишиной в начале и конце : Нет
При вычислениях CRC использовались нулевые сэмплы : Да
Интерфейс : Установленный внешний ASPI-интерфейс

Выходной формат : Monkey's Audio (без потерь)
Выбранный битрейт : Extra High Lossless Compression
Качество : Высокий
Добавление ID3-тэга : Нет
Утилита сжатия : C:\Program Files (x86)\Exact Audio Copy\MAC.exe
Дополнительные параметры : -v
Смещение при сжатии : 0

TOC извлечённого CD

Трек | Старт | Длительность | Начальный сектор | Конечный сектор
---------------------------------------------------------------------
1 | 0:00.32 | 2:44.20 | 32 | 12351
2 | 2:44.52 | 4:31.58 | 12352 | 32734
3 | 7:16.35 | 5:20.22 | 32735 | 56756
4 | 12:36.57 | 7:35.05 | 56757 | 90886
5 | 20:11.62 | 5:42.35 | 90887 | 116571
6 | 25:54.22 | 6:16.00 | 116572 | 144771
7 | 32:10.22 | 0:31.13 | 144772 | 147109
8 | 32:41.35 | 2:02.02 | 147110 | 156261
9 | 34:43.37 | 3:39.23 | 156262 | 172709
10 | 38:22.60 | 3:51.42 | 172710 | 190076
11 | 42:14.27 | 7:47.35 | 190077 | 225136
12 | 50:01.62 | 4:45.05 | 225137 | 246516
13 | 54:46.67 | 4:09.10 | 246517 | 265201
14 | 58:56.02 | 7:16.10 | 265202 | 297911
15 | 66:12.12 | 4:05.63 | 297912 | 316349

Характеристики диапазона извлечения и сообщения об ошибках

Выбранный диапазон

Имя файла C:\Users\Acerr\Desktop\Новая папка (2)\Paul Oakenfold - Swordfish The Album.wav

Пиковый уровень 98.8 %
Качество диапазона 100.0 %
CRC копии F0D21DE4
Копирование... OK

Ошибок не произошло

Конец отчёта


Трекер:  [ 07-Июл-2011 23:02 ]

  

Скачать .torrent

Размер .torrent файла 18 KB


Размер: 444 MB
Хэш (hash) релиза: 409d74af2211c3a315ae177c74e51b2e143bfe32

Еще никто не оставлял запись к записи скачать торрент Paul Oakenfold Swordfish <<The Album>> - 2001, APE . Будь первым!

!Обратная связь