Скачать через торрент музыку Лучшие Саундтреки Голливуда - Эротика - 2004, FLAC бесплатно без регистрации torrent

Статистика раздачи
Размер:  417 MB   |    Зарегистрирован:  7 лет 4 месяца   |    .torrent скачан:  57 раз   |   
Раздают:  1  
   
загрузка...
 
Автор Сообщение

Galfimbul

avatar Galfimbul


Лучшие Саундтреки Голливуда - Эротика

Жанр: Soundtrack
Год выпуска диска: 2004
Производитель диска: Россия
Аудио кодек: FLAC
Тип рипа: tracks+.cue
Битрейт аудио: lossless
Продолжительность: 1:02:27.49
Трэклист:
01;Je T'aime, Moi Non Plus;0:04:05.52
02;The Color Of The Night;0:03:52.56
03;Bilitis;0:03:18.77
04;Black Emmanuelle;0:03:24.48
05;Les Femmes;0:04:28.58
06;Blue Velvet;0:02:50.50
07;Theme From Basik Instinct;0:02:08.32
08;Emmanuelle;0:03:13.61
09;Histoire d'O;0:02:51.81
10;Theme From Last Tango In Paris;0:03:16.37
11;Paradise;0:03:49.65
12;Serene Family/Disclosure;0:04:49.77
13;Theme From Lady Chatterley's Lover;0:03:20.89
14;Jeux Interdits;0:03:50.22
15;No Ordinary Love;0:05:13.21
16;Bolero;0:03:51.30
17;Wicked Game;0:04:01.88
18;You Can Leave Your Hat On;0:04:16.96
Лог:
Exact Audio Copy V0.99 prebeta 4 from 23. January 2008

Отчёт EAC об извлечении, выполненном 23. июня 2008, 15:05

Лучшие Саундтреки Голливуда - Эротика / Лучшие Саундтреки Голливуда - Эротика

Дисковод: PIONEER DVD-RW DVR-111D Adapter: 0 ID: 2

Режим чтения : Достоверность
Использование точного потока : Да
Отключение кэша аудио : Да
Использование указателей C2 : Нет

Коррекция смещения при чтении : 48
Способность читать области Lead-in и Lead-out : Нет
Заполнение пропущенных сэмплов тишиной : Да
Удаление блоков с тишиной в начале и конце : Нет
При вычислениях CRC использовались нулевые сэмплы : Да
Интерфейс : Встроенный Win32-интерфейс для Win NT/2000
Обработка зазоров : Добавлено к предыдущему треку

Выходной формат : Внутренние WAV-операции
Формат сэмплов : 44.100 Гц; 16 бит; стерео

TOC извлечённого CD

Трек | Старт | Длительность | Начальный сектор | Конечный сектор
---------------------------------------------------------------------
1 | 0:00.00 | 4:05.39 | 0 | 18413
2 | 4:05.39 | 3:52.42 | 18414 | 35855
3 | 7:58.06 | 3:18.58 | 35856 | 50763
4 | 11:16.64 | 3:24.36 | 50764 | 66099
5 | 14:41.25 | 4:28.44 | 66100 | 86243
6 | 19:09.69 | 2:50.38 | 86244 | 99031
7 | 22:00.32 | 2:08.24 | 99032 | 108655
8 | 24:08.56 | 3:13.46 | 108656 | 123176
9 | 27:22.27 | 2:51.61 | 123177 | 136062
10 | 30:14.13 | 3:16.28 | 136063 | 150790
11 | 33:30.41 | 3:49.49 | 150791 | 168014
12 | 37:20.15 | 4:49.58 | 168015 | 189747
13 | 42:09.73 | 3:20.67 | 189748 | 204814
14 | 45:30.65 | 3:50.17 | 204815 | 222081
15 | 49:21.07 | 5:13.16 | 222082 | 245572
16 | 54:34.23 | 3:51.23 | 245573 | 262920
17 | 58:25.46 | 4:01.66 | 262921 | 281061
18 | 62:27.37 | 4:16.72 | 281062 | 300333

Трек 1

Имя файла D:\imadge CD\01 - Je T'aime, Moi Non Plus.wav

Длина предзазора 0:00:02.00

Пиковый уровень 99.9 %
Качество трека 100.0 %
CRC теста 52C56AA3
CRC копии 52C56AA3
Копирование... OK

Трек 2

Имя файла D:\imadge CD\02 - The Color Of The Night.wav

Пиковый уровень 99.8 %
Качество трека 100.0 %
CRC теста 53621A3E
CRC копии 53621A3E
Копирование... OK

Трек 3

Имя файла D:\imadge CD\03 - Bilitis.wav

Пиковый уровень 100.0 %
Качество трека 100.0 %
CRC теста 23E84AE8
CRC копии 23E84AE8
Копирование... OK

Трек 4

Имя файла D:\imadge CD\04 - Black Emmanuelle.wav

Пиковый уровень 99.9 %
Качество трека 100.0 %
CRC теста 6576FC24
CRC копии 6576FC24
Копирование... OK

Трек 5

Имя файла D:\imadge CD\05 - Les Femmes.wav

Пиковый уровень 99.9 %
Качество трека 100.0 %
CRC теста 894D7972
CRC копии 894D7972
Копирование... OK

Трек 6

Имя файла D:\imadge CD\06 - Blue Velvet.wav

Пиковый уровень 99.8 %
Качество трека 100.0 %
CRC теста 1CA081CF
CRC копии 1CA081CF
Копирование... OK

Трек 7

Имя файла D:\imadge CD\07 - Theme From Basik Instinct.wav

Пиковый уровень 100.0 %
Качество трека 100.0 %
CRC теста B99DEAAF
CRC копии B99DEAAF
Копирование... OK

Трек 8

Имя файла D:\imadge CD\08 - Emmanuelle.wav

Пиковый уровень 99.9 %
Качество трека 99.9 %
CRC теста 89EC0E8A
CRC копии 89EC0E8A
Копирование... OK

Трек 9

Имя файла D:\imadge CD\09 - Histoire d'O.wav

Пиковый уровень 99.7 %
Качество трека 100.0 %
CRC теста 2360FBAE
CRC копии 2360FBAE
Копирование... OK

Трек 10

Имя файла D:\imadge CD\10 - Theme From Last Tango In Paris.wav

Пиковый уровень 100.0 %
Качество трека 100.0 %
CRC теста EAB3FFC3
CRC копии EAB3FFC3
Копирование... OK

Трек 11

Имя файла D:\imadge CD\11 - Paradise.wav

Пиковый уровень 100.0 %
Качество трека 100.0 %
CRC теста BAE25469
CRC копии BAE25469
Копирование... OK

Трек 12

Имя файла D:\imadge CD\12 - Serene Family,Disclosure.wav

Пиковый уровень 100.0 %
Качество трека 100.0 %
CRC теста 772D21D7
CRC копии 772D21D7
Копирование... OK

Трек 13

Имя файла D:\imadge CD\13 - Theme From Lady Chatterley's Lover.wav

Пиковый уровень 99.9 %
Качество трека 99.9 %
CRC теста 0B72E934
CRC копии 0B72E934
Копирование... OK

Трек 14

Имя файла D:\imadge CD\14 - Jeux Interdits.wav

Пиковый уровень 100.0 %
Качество трека 100.0 %
CRC теста FBF37C0C
CRC копии FBF37C0C
Копирование... OK

Трек 15

Имя файла D:\imadge CD\15 - No Ordinary Love.wav

Пиковый уровень 99.9 %
Качество трека 100.0 %
CRC теста FCBFE9B1
CRC копии FCBFE9B1
Копирование... OK

Трек 16

Имя файла D:\imadge CD\16 - Bolero.wav

Пиковый уровень 100.0 %
Качество трека 100.0 %
CRC теста 8B792138
CRC копии 8B792138
Копирование... OK

Трек 17

Имя файла D:\imadge CD\17 - Wicked Game.wav

Пиковый уровень 100.0 %
Качество трека 100.0 %
CRC теста 6FC909AA
CRC копии 6FC909AA
Копирование... OK

Трек 18

Имя файла D:\imadge CD\18 - You Can Leave Your Hat On.wav

Пиковый уровень 99.9 %
Качество трека 100.0 %
CRC теста 5EEB4CD6
CRC копии 5EEB4CD6
Копирование... OK

Ошибок не произошло

Конец отчёта</div>
</div>
Куй:
<div class="sp-wrap">
<div class="sp-body">REM DATE 2004
REM DISCID F00FA412
REM COMMENT "ExactAudioCopy v0.99pb4"
PERFORMER "Various"
TITLE "Лучшие Саундтреки Голливуда - Эротика"
FILE "01 - Je T'aime, Moi Non Plus - Je T'aime, Moi Non Plus.wav" WAVE
TRACK 01 AUDIO
TITLE "Je T'aime, Moi Non Plus"
PERFORMER "Je T'aime, Moi Non Plus"
FLAGS DCP
INDEX 01 00:00:00
FILE "02 - The Color Of The Night - The Color Of The Night.wav" WAVE
TRACK 02 AUDIO
TITLE "The Color Of The Night"
PERFORMER "The Color Of The Night"
FLAGS DCP
INDEX 01 00:00:00
FILE "03 - Bilitis - Bilitis.wav" WAVE
TRACK 03 AUDIO
TITLE "Bilitis"
PERFORMER "Bilitis"
FLAGS DCP
INDEX 01 00:00:00
FILE "04 - Black Emmanuelle - Black Emmanuelle.wav" WAVE
TRACK 04 AUDIO
TITLE "Black Emmanuelle"
PERFORMER "Black Emmanuelle"
FLAGS DCP
INDEX 01 00:00:00
FILE "05 - Les Femmes - Les Femmes.wav" WAVE
TRACK 05 AUDIO
TITLE "Les Femmes"
PERFORMER "Les Femmes"
FLAGS DCP
INDEX 01 00:00:00
FILE "06 - Blue Velvet - Blue Velvet.wav" WAVE
TRACK 06 AUDIO
TITLE "Blue Velvet"
PERFORMER "Blue Velvet"
FLAGS DCP
INDEX 01 00:00:00
FILE "07 - Theme From Basik Instinct - Theme From Basik Instinct.wav" WAVE
TRACK 07 AUDIO
TITLE "Theme From Basik Instinct"
PERFORMER "Theme From Basik Instinct"
FLAGS DCP
INDEX 01 00:00:00
FILE "08 - Emmanuelle - Emmanuelle.wav" WAVE
TRACK 08 AUDIO
TITLE "Emmanuelle"
PERFORMER "Emmanuelle"
FLAGS DCP
INDEX 01 00:00:00
FILE "09 - Histoire d'O - Histoire d'O.wav" WAVE
TRACK 09 AUDIO
TITLE "Histoire d'O"
PERFORMER "Histoire d'O"
FLAGS DCP
INDEX 01 00:00:00
FILE "10 - Theme From Last Tango In Paris - Theme From Last Tango In Paris.wav" WAVE
TRACK 10 AUDIO
TITLE "Theme From Last Tango In Paris"
PERFORMER "Theme From Last Tango In Paris"
FLAGS DCP
INDEX 01 00:00:00
FILE "11 - Paradise - Paradise.wav" WAVE
TRACK 11 AUDIO
TITLE "Paradise"
PERFORMER "Paradise"
FLAGS DCP
INDEX 01 00:00:00
FILE "12 - Serene Family - Disclosure.wav" WAVE
TRACK 12 AUDIO
TITLE "Disclosure"
PERFORMER "Serene Family"
FLAGS DCP
INDEX 01 00:00:00
FILE "13 - Theme From Lady Chatterley's Lover - Theme From Lady Chatterley's Lover.wav" WAVE
TRACK 13 AUDIO
TITLE "Theme From Lady Chatterley's Lover"
PERFORMER "Theme From Lady Chatterley's Lover"
FLAGS DCP
INDEX 01 00:00:00
FILE "14 - Jeux Interdits - Jeux Interdits.wav" WAVE
TRACK 14 AUDIO
TITLE "Jeux Interdits"
PERFORMER "Jeux Interdits"
FLAGS DCP
INDEX 01 00:00:00
FILE "15 - No Ordinary Love - No Ordinary Love.wav" WAVE
TRACK 15 AUDIO
TITLE "No Ordinary Love"
PERFORMER "No Ordinary Love"
FLAGS DCP
INDEX 01 00:00:00
FILE "16 - Bolero - Bolero.wav" WAVE
TRACK 16 AUDIO
TITLE "Bolero"
PERFORMER "Bolero"
FLAGS DCP
INDEX 01 00:00:00
FILE "17 - Wicked Game - Wicked Game.wav" WAVE
TRACK 17 AUDIO
TITLE "Wicked Game"
PERFORMER "Wicked Game"
FLAGS DCP
INDEX 01 00:00:00
FILE "18 - You Can Leave Your Hat On - You Can Leave Your Hat On.wav" WAVE
TRACK 18 AUDIO
TITLE "You Can Leave Your Hat On"
PERFORMER "You Can Leave Your Hat On"
FLAGS DCP
INDEX 01 00:00:00


Трекер:  [ 07-Июл-2011 23:01 ]

  

Скачать .torrent

Размер .torrent файла 18 KB


Размер: 417 MB
Хэш (hash) релиза: d9400c79f6a45d4db687928262891c12fd6a311c

Еще никто не оставлял запись к записи скачать торрент Лучшие Саундтреки Голливуда - Эротика - 2004, FLAC . Будь первым!

!Обратная связь