Скачать через торрент музыку Ранэвэйс The Runaways — 2010, FLAC бесплатно без регистрации torrent

Статистика раздачи
Размер:  356 MB   |    Зарегистрирован:  7 лет 10 месяцев   |    .torrent скачан:  60 раз   |   
Раздают:  1  
   
загрузка...
 
Автор Сообщение

AqvaGen


The Runaways / Ранэвэйс
Жанр
: Soundtrack
Год выпуска фильма/диска: 2010
Страна-производитель диска: США
Издатель (лейбл): Atlantic
Номер по каталогу: B003954I3I
Аудио кодек: FLAC (*.flac)
Тип рипа: tracks+.cue
Битрейт аудио: lossless
Продолжительность: 0:50:05
Наличие сканов в раздаче: нет
Треклист
:
01.
Nick Gilder — Roxy Roller 2:50
02.
Suzi Quatro — The Wild One 2:51
03.
MC5 — It's a Man's Man's Man's World [Live] 5:15
04.
David Bowie — Rebel Rebel 4:33
05.
Dakota Fanning — Cherry Bomb 2:20
06.
The Runaways — Hollywood 2:58
07.
Dakota Fanning — California Paradise 3:01
08.
The Runaways — You Drive Me Wild 3:23
09.
Dakota Fanning & Kristen Stewart — Queens of Noise 3:14
10.
Kristen Stewart & Dakota Fanning — Dead End Justice 6:37
11.
The Stooges — I Wanna Be Your Dog 3:13
12.
The Runaways — I Wanna Be Where the Boys Are [Live] 2:57
13.
Sex Pistols — Pretty Vacant 3:17
14.
Joan Jett — Don't Abuse Me 3:37
 
X Lossless Decoder version 20100711 (120.5)

XLD extraction logfile from 2010-07-22 12:18:46 -0400

Various Artists / The Runaways

Used drive : MATSHITA DVD-R UJ-857D (revision KBVB)

Use cdparanoia mode : YES (CDParanoia III 10.2 engine)Disable audio cache : OK for the drive with cache less than 2750KBMake use of C2 pointers : NORead offset correction : 102Max retry count : 100Gap status : Analyzed, Appended

TOC of the extracted CD Track | Start | Length | Start sector | End sector --------------------------------------------------------- 1 | 00:00:00 | 02:49:46 | 0 | 12720 2 | 02:49:46 | 02:51:28 | 12721 | 25573 3 | 05:40:74 | 05:14:42 | 25574 | 49165 4 | 10:55:41 | 04:32:40 | 49166 | 69605 5 | 15:28:06 | 02:19:68 | 69606 | 80098 6 | 17:47:74 | 02:58:28 | 80099 | 93476 7 | 20:46:27 | 03:00:70 | 93477 | 107046 8 | 23:47:22 | 03:23:09 | 107047 | 122280 9 | 27:10:31 | 03:14:14 | 122281 | 136844 10 | 30:24:45 | 06:37:26 | 136845 | 166645 11 | 37:01:71 | 03:12:65 | 166646 | 181110 12 | 40:14:61 | 02:56:48 | 181111 | 194358 13 | 43:11:34 | 03:17:22 | 194359 | 209155 14 | 46:28:56 | 03:36:52 | 209156 | 225407

List of alternate offset correction values # | Absolute | Relative | Confidence ------------------------------------------ 1 | 108 | 6 | 2

All Tracks Album gain : -10.32 dB Peak : 1.000000

Track 01 Filename : /Temp/The Runaways (2010, FLAC) - Various/01 - Nick Gilder - Roxy Roller.flac

Pre-gap length : 00:02:00

Track gain : -11.11 dB Peak : 0.988556 CRC32 hash (test run) : BCD4735E CRC32 hash : BCD4735E CRC32 hash (skip zero) : 186C76E7 AccurateRip signature : 0F9BCFEA ->Rip may not be accurate. Statistics Read error : 0 Skipped (treated as error) : 0 Edge jitter error (maybe fixed) : 0 Atom jitter error (maybe fixed) : 0 Drift error (maybe fixed) : 0 Dropped bytes error (maybe fixed) : 0 Duplicated bytes error (maybe fixed) : 0 Inconsistency in error sectors : 0

Track 02 Filename : /Temp/The Runaways (2010, FLAC) - Various/02 - Suzi Quatro - The Wild One.flac

Pre-gap length : 00:01:00

Track gain : -10.25 dB Peak : 1.000000 CRC32 hash (test run) : E82630BD CRC32 hash : E82630BD CRC32 hash (skip zero) : FD272831 AccurateRip signature : 5AC1D473 ->Accurately ripped! (confidence 1) (matched with the different offset correction value; calculated using an additional offset of 6; the signature after correction is: 9165FE07) Statistics Read error : 0 Skipped (treated as error) : 0 Edge jitter error (maybe fixed) : 0 Atom jitter error (maybe fixed) : 0 Drift error (maybe fixed) : 0 Dropped bytes error (maybe fixed) : 0 Duplicated bytes error (maybe fixed) : 0 Inconsistency in error sectors : 0

Track 03 Filename : /Temp/The Runaways (2010, FLAC) - Various/03 - MC5 - It's A Man's Man's Man's World [Live].flac

Pre-gap length : 00:00:40

Track gain : -7.35 dB Peak : 0.999786 CRC32 hash (test run) : 6AC35B2B CRC32 hash : 6AC35B2B CRC32 hash (skip zero) : 0ABA6902 AccurateRip signature : 917B4285 ->Accurately ripped! (confidence 1) (matched with the different offset correction value; calculated using an additional offset of 6; the signature after correction is: 2DC512F9) Statistics Read error : 0 Skipped (treated as error) : 0 Edge jitter error (maybe fixed) : 0 Atom jitter error (maybe fixed) : 0 Drift error (maybe fixed) : 0 Dropped bytes error (maybe fixed) : 0 Duplicated bytes error (maybe fixed) : 0 Inconsistency in error sectors : 0

Track 04 Filename : /Temp/The Runaways (2010, FLAC) - Various/04 - David Bowie - Rebel Rebel.flac

Pre-gap length : 00:01:04

Track gain : -8.85 dB Peak : 1.000000 CRC32 hash (test run) : 95CD603A CRC32 hash : 95CD603A CRC32 hash (skip zero) : AF1BB484 AccurateRip signature : 2BD8E5C3 ->Accurately ripped! (confidence 1) (matched with the different offset correction value; calculated using an additional offset of 6; the signature after correction is: 117B1E1F) Statistics Read error : 0 Skipped (treated as error) : 0 Edge jitter error (maybe fixed) : 0 Atom jitter error (maybe fixed) : 0 Drift error (maybe fixed) : 0 Dropped bytes error (maybe fixed) : 0 Duplicated bytes error (maybe fixed) : 0 Inconsistency in error sectors : 0

Track 05 Filename : /Temp/The Runaways (2010, FLAC) - Various/05 - Dakota Fanning - Cherry Bomb.flac

Pre-gap length : 00:00:74

Track gain : -10.99 dB Peak : 0.988556 CRC32 hash (test run) : E91D84F3 CRC32 hash : E91D84F3 CRC32 hash (skip zero) : 7D1A7AA7 AccurateRip signature : 05B9D5BF ->Accurately ripped! (confidence 2) (matched with the different offset correction value; calculated using an additional offset of 6; the signature after correction is: 34623939) Statistics Read error : 0 Skipped (treated as error) : 0 Edge jitter error (maybe fixed) : 1 Atom jitter error (maybe fixed) : 1 Drift error (maybe fixed) : 0 Dropped bytes error (maybe fixed) : 0 Duplicated bytes error (maybe fixed) : 1 Inconsistency in error sectors : 0

Track 06 Filename : /Temp/The Runaways (2010, FLAC) - Various/06 - The Runaways - Hollywood.flac

Pre-gap length : 00:00:74

Track gain : -10.37 dB Peak : 0.999786 CRC32 hash (test run) : 810304C9 CRC32 hash : 810304C9 CRC32 hash (skip zero) : 02E7B5BF AccurateRip signature : 239CBA50 ->Accurately ripped! (confidence 1) (matched with the different offset correction value; calculated using an additional offset of 6; the signature after correction is: 4712032A) Statistics Read error : 0 Skipped (treated as error) : 0 Edge jitter error (maybe fixed) : 0 Atom jitter error (maybe fixed) : 0 Drift error (maybe fixed) : 0 Dropped bytes error (maybe fixed) : 0 Duplicated bytes error (maybe fixed) : 0 Inconsistency in error sectors : 0

Track 07 Filename : /Temp/The Runaways (2010, FLAC) - Various/07 - Dakota Fanning - California Paradise.flac

Pre-gap length : 00:00:74

Track gain : -8.77 dB Peak : 0.962433 CRC32 hash (test run) : 39D8F170 CRC32 hash : 39D8F170 CRC32 hash (skip zero) : 14C2549E AccurateRip signature : 57F4B49F ->Accurately ripped! (confidence 2) (matched with the different offset correction value; calculated using an additional offset of 6; the signature after correction is: 8C7287F9) Statistics Read error : 0 Skipped (treated as error) : 0 Edge jitter error (maybe fixed) : 0 Atom jitter error (maybe fixed) : 0 Drift error (maybe fixed) : 0 Dropped bytes error (maybe fixed) : 0 Duplicated bytes error (maybe fixed) : 0 Inconsistency in error sectors : 0

Track 08 Filename : /Temp/The Runaways (2010, FLAC) - Various/08 - The Runaways - You Drive Me Wild.flac

Pre-gap length : 00:02:03

Track gain : -9.49 dB Peak : 0.999908 CRC32 hash (test run) : F9D502E6 CRC32 hash : F9D502E6 CRC32 hash (skip zero) : 789F8F28 AccurateRip signature : DD139015 ->Accurately ripped! (confidence 1) (matched with the different offset correction value; calculated using an additional offset of 6; the signature after correction is: CA956D4D) Statistics Read error : 0 Skipped (treated as error) : 0 Edge jitter error (maybe fixed) : 0 Atom jitter error (maybe fixed) : 0 Drift error (maybe fixed) : 0 Dropped bytes error (maybe fixed) : 0 Duplicated bytes error (maybe fixed) : 0 Inconsistency in error sectors : 0

Track 09 Filename : /Temp/The Runaways (2010, FLAC) - Various/09 - Dakota Fanning And Kristen Stewart - Queens Of Noise.flac

Pre-gap length : 00:01:07

Track gain : -9.99 dB Peak : 0.999969 CRC32 hash (test run) : F72E1373 CRC32 hash : F72E1373 CRC32 hash (skip zero) : 2B91F547 AccurateRip signature : ADB3B2C0 ->Accurately ripped! (confidence 2) (matched with the different offset correction value; calculated using an additional offset of 6; the signature after correction is: F7FB6B5C) Statistics Read error : 0 Skipped (treated as error) : 0 Edge jitter error (maybe fixed) : 0 Atom jitter error (maybe fixed) : 0 Drift error (maybe fixed) : 0 Dropped bytes error (maybe fixed) : 0 Duplicated bytes error (maybe fixed) : 0 Inconsistency in error sectors : 0

Track 10 Filename : /Temp/The Runaways (2010, FLAC) - Various/10 - Kristen Stewart And Dakota Fanning - Dead End Justice.flac

Pre-gap length : 00:00:74

Track gain : -10.99 dB Peak : 0.988556 CRC32 hash (test run) : AC87FD7A CRC32 hash : AC87FD7A CRC32 hash (skip zero) : 1ED20517 AccurateRip signature : A2237B75 ->Accurately ripped! (confidence 2) (matched with the different offset correction value; calculated using an additional offset of 6; the signature after correction is: 75C565DB) Statistics Read error : 0 Skipped (treated as error) : 0 Edge jitter error (maybe fixed) : 0 Atom jitter error (maybe fixed) : 0 Drift error (maybe fixed) : 0 Dropped bytes error (maybe fixed) : 0 Duplicated bytes error (maybe fixed) : 0 Inconsistency in error sectors : 0

Track 11 Filename : /Temp/The Runaways (2010, FLAC) - Various/11 - The Stooges - I Wanna Be Your Dog.flac

Pre-gap length : 00:00:74

Track gain : -9.95 dB Peak : 0.999786 CRC32 hash (test run) : B5C4220A CRC32 hash : B5C4220A CRC32 hash (skip zero) : 6D259ED4 AccurateRip signature : 30157188 ->Accurately ripped! (confidence 1) (matched with the different offset correction value; calculated using an additional offset of 6; the signature after correction is: 4AA8F32C) Statistics Read error : 0 Skipped (treated as error) : 0 Edge jitter error (maybe fixed) : 0 Atom jitter error (maybe fixed) : 0 Drift error (maybe fixed) : 0 Dropped bytes error (maybe fixed) : 0 Duplicated bytes error (maybe fixed) : 0 Inconsistency in error sectors : 0

Track 12 Filename : /Temp/The Runaways (2010, FLAC) - Various/12 - The Runaways - I Wanna Be Where The Boys Are [Live].flac

Pre-gap length : 00:00:74

Track gain : -9.98 dB Peak : 0.898682 CRC32 hash (test run) : 48E32C50 CRC32 hash : 48E32C50 CRC32 hash (skip zero) : 5735ED68 AccurateRip signature : 60C13A57 ->Accurately ripped! (confidence 1) (matched with the different offset correction value; calculated using an additional offset of 6; the signature after correction is: C1BF34D1) Statistics Read error : 0 Skipped (treated as error) : 0 Edge jitter error (maybe fixed) : 0 Atom jitter error (maybe fixed) : 0 Drift error (maybe fixed) : 0 Dropped bytes error (maybe fixed) : 0 Duplicated bytes error (maybe fixed) : 0 Inconsistency in error sectors : 0

Track 13 Filename : /Temp/The Runaways (2010, FLAC) - Various/13 - Sex Pistols - Pretty Vacant.flac

Pre-gap length : 00:01:03

Track gain : -10.27 dB Peak : 0.929901 CRC32 hash (test run) : 7BCB6FDC CRC32 hash : 7BCB6FDC CRC32 hash (skip zero) : 199718C0 AccurateRip signature : 3367C43C ->Accurately ripped! (confidence 1) (matched with the different offset correction value; calculated using an additional offset of 6; the signature after correction is: 5E76350E) Statistics Read error : 0 Skipped (treated as error) : 0 Edge jitter error (maybe fixed) : 0 Atom jitter error (maybe fixed) : 0 Drift error (maybe fixed) : 0 Dropped bytes error (maybe fixed) : 0 Duplicated bytes error (maybe fixed) : 0 Inconsistency in error sectors : 0

Track 14 Filename : /Temp/The Runaways (2010, FLAC) - Various/14 - Joan Jett - Don't Abuse Me.flac

Pre-gap length : 00:00:74

Track gain : -10.34 dB Peak : 0.939087 CRC32 hash (test run) : 332C8D80 CRC32 hash : 332C8D80 CRC32 hash (skip zero) : 98069810 AccurateRip signature : 3324F881 ->Accurately ripped! (confidence 1) (matched with the different offset correction value; calculated using an additional offset of 6; the signature after correction is: 430AC46F) Statistics Read error : 0 Skipped (treated as error) : 0 Edge jitter error (maybe fixed) : 0 Atom jitter error (maybe fixed) : 0 Drift error (maybe fixed) : 0 Dropped bytes error (maybe fixed) : 0 Duplicated bytes error (maybe fixed) : 0 Inconsistency in error sectors : 0

No errors occurred

End of status report
 
TITLE "The Runaways"CATALOG 0075678947803REM GENRE "Soundtrack"REM DATE 2010REM DISCNUMBER 1REM TOTALDISCS 1REM DISCID B90BBD0EFILE "01 - Nick Gilder - Roxy Roller.wav" WAVE TRACK 01 AUDIO TITLE "Roxy Roller" PERFORMER "Nick Gilder" ISRC USAT21000338 INDEX 01 00:00:00 TRACK 02 AUDIO TITLE "The Wild One" PERFORMER "Suzi Quatro" ISRC USAT21000339 INDEX 00 02:48:46FILE "02 - Suzi Quatro - The Wild One.wav" WAVE INDEX 01 00:00:00 TRACK 03 AUDIO TITLE "It's A Man's Man's Man's World [Live]" PERFORMER "MC5" ISRC USAT21000340 INDEX 00 02:50:63FILE "03 - MC5 - It's A Man's Man's Man's World [Live].wav" WAVE INDEX 01 00:00:00 TRACK 04 AUDIO TITLE "Rebel Rebel" PERFORMER "David Bowie" ISRC USAT21000341 INDEX 00 05:13:38FILE "04 - David Bowie - Rebel Rebel.wav" WAVE INDEX 01 00:00:00 TRACK 05 AUDIO TITLE "Cherry Bomb" PERFORMER "Dakota Fanning" ISRC USAT21000342 INDEX 00 04:31:41FILE "05 - Dakota Fanning - Cherry Bomb.wav" WAVE INDEX 01 00:00:00 TRACK 06 AUDIO TITLE "Hollywood" PERFORMER "The Runaways" ISRC USAT21000343 INDEX 00 02:18:69FILE "06 - The Runaways - Hollywood.wav" WAVE INDEX 01 00:00:00 TRACK 07 AUDIO TITLE "California Paradise" PERFORMER "Dakota Fanning" ISRC USAT21000344 INDEX 00 02:57:29FILE "07 - Dakota Fanning - California Paradise.wav" WAVE INDEX 01 00:00:00 TRACK 08 AUDIO TITLE "You Drive Me Wild" PERFORMER "The Runaways" ISRC USAT21000345 INDEX 00 02:58:67FILE "08 - The Runaways - You Drive Me Wild.wav" WAVE INDEX 01 00:00:00 TRACK 09 AUDIO TITLE "Queens Of Noise" PERFORMER "Dakota Fanning And Kristen Stewart" ISRC USAT21000346 INDEX 00 03:22:02FILE "09 - Dakota Fanning And Kristen Stewart - Queens Of Noise.wav" WAVE INDEX 01 00:00:00 TRACK 10 AUDIO TITLE "Dead End Justice" PERFORMER "Kristen Stewart And Dakota Fanning" ISRC USAT21000347 INDEX 00 03:13:15FILE "10 - Kristen Stewart And Dakota Fanning - Dead End Justice.wav" WAVE INDEX 01 00:00:00 TRACK 11 AUDIO TITLE "I Wanna Be Your Dog" PERFORMER "The Stooges" ISRC USAT21000348 INDEX 00 06:36:27FILE "11 - The Stooges - I Wanna Be Your Dog.wav" WAVE INDEX 01 00:00:00 TRACK 12 AUDIO TITLE "I Wanna Be Where The Boys Are [Live]" PERFORMER "The Runaways" ISRC USAT21000349 INDEX 00 03:11:66FILE "12 - The Runaways - I Wanna Be Where The Boys Are [Live].wav" WAVE INDEX 01 00:00:00 TRACK 13 AUDIO TITLE "Pretty Vacant" PERFORMER "Sex Pistols" ISRC USAT21000374 INDEX 00 02:55:45FILE "13 - Sex Pistols - Pretty Vacant.wav" WAVE INDEX 01 00:00:00 TRACK 14 AUDIO TITLE "Don't Abuse Me" PERFORMER "Joan Jett" ISRC USAT21000350 INDEX 00 03:16:23FILE "14 - Joan Jett - Don't Abuse Me.wav" WAVE INDEX 01 00:00:00
 
AUDIOCHECKER v2.0 beta (build 457) - by Dester - opdester@freemail.hu~~~~~~~~~~~~~~~~~~~~~~~~~~~~~~~~~~-=== DO NOT EDIT THIS FILE! ===-

Path: ...\The Runaways (2010, FLAC) - Various

01 -=- 01 - Nick Gilder - Roxy Roller.flac -=- CDDA (100%)02 -=- 02 - Suzi Quatro - The Wild One.flac -=- CDDA (100%)03 -=- 03 - MC5 - It's A Man's Man's Man's World [Live].flac -=- CDDA (100%)04 -=- 04 - David Bowie - Rebel Rebel.flac -=- CDDA (100%)05 -=- 05 - Dakota Fanning - Cherry Bomb.flac -=- CDDA (99%)06 -=- 06 - The Runaways - Hollywood.flac -=- CDDA (100%)07 -=- 07 - Dakota Fanning - California Paradise.flac -=- CDDA (100%)08 -=- 08 - The Runaways - You Drive Me Wild.flac -=- CDDA (100%)09 -=- 09 - Dakota Fanning And Kristen Stewart - Queens Of Noise.flac -=- CDDA (100%)10 -=- 10 - Kristen Stewart And Dakota Fanning - Dead End Justice.flac -=- CDDA (100%)11 -=- 11 - The Stooges - I Wanna Be Your Dog.flac -=- CDDA (100%)12 -=- 12 - The Runaways - I Wanna Be Where The Boys Are [Live].flac -=- CDDA (100%)13 -=- 13 - Sex Pistols - Pretty Vacant.flac -=- CDDA (100%)14 -=- 14 - Joan Jett - Don't Abuse Me.flac -=- CDDA (100%)

Summary 99,93% CDDA

167481364


Трекер:  [ 19-Дек-2010 15:37 ]

  

Скачать .torrent

Размер .torrent файла 21 KB


Размер: 356 MB
Хэш (hash) релиза: 8da6a2f00451633349fed6cf0759e41dd26ec0f5

bot

Топик был перенесен в форум Саундтреки к фильмам и мультфильмам (lossless)

Перенес AqvaGen

Хотите добавить комментарий к записи скачать торрент Ранэвэйс The Runaways — 2010, FLAC

!Обратная связь