Скачать через торрент музыку Повелитель Стихий The Last Airbender бесплатно без регистрации torrent

Статистика раздачи
Размер:  353 MB   |    Зарегистрирован:  7 лет 4 месяца   |    .torrent скачан:  39 раз   |   
Раздают:  1  
   
загрузка...
 
Автор Сообщение

AqvaGen


Повелитель Стихий / The Last Airbender

Жанр: Score
Композитор: James Newton Howard
Год выпуска диска/фильма: 2010

Аудио кодек: WavPack (*.wv)
Тип рипа: image+.cue
Битрейт аудио: lossless
Продолжительность: 66:54

Наличие сканов в содержимом раздачи: да

Треклист:
01. Airbender Suite (11:16)
02. Earthbenders (05:53)
03. The Avatar Has Returned (04:42)
04. The Four Elements Test (05:30)
05. Journey to the Northern Water Tribe (04:01)
06. Hall of Avatars (03:40)
07. Prologue (02:43)
08. The Blue Spirit (07:17)
09. The Spirit World (05:18)
10. We Could Be Friends (04:08)
11. We Are Now the Gods (05:46)
12. Flow Like Water (06:32)
 
Exact Audio Copy V0.99 prebeta 4 from 23. January 2008

EAC extraction logfile from 14. July 2010, 14:11

James Newton Howard / The last airbender

Used drive : HL-DT-STCD-RW GCE-8523B Adapter: 1 ID: 1

Read mode : SecureUtilize accurate stream : YesDefeat audio cache : YesMake use of C2 pointers : No

Read offset correction : 6Overread into Lead-In and Lead-Out : NoFill up missing offset samples with silence : YesDelete leading and trailing silent blocks : NoNull samples used in CRC calculations : YesUsed interface : Installed external ASPI interface

Used output format : User Defined EncoderSelected bitrate : 320 kBit/sQuality : HighAdd ID3 tag : NoCommand line compressor : C:\Documents and Settings\Ricardo\Mis documentos\Mis archivos recibidos\Codecs\wavpack.exeAdditional command line options : -w "Artist=%a" -w "Album=%g" -w "Year=%y" -w "Genre=%m" -hh -m -t %s %d

TOC of the extracted CD

Track | Start | Length | Start sector | End sector --------------------------------------------------------- 1 | 0:01.11 | 11:16.64 | 86 | 50849 2 | 11:18.00 | 5:53.45 | 50850 | 77369 3 | 17:11.45 | 4:42.67 | 77370 | 98586 4 | 21:54.37 | 5:30.40 | 98587 | 123376 5 | 27:25.02 | 4:01.45 | 123377 | 141496 6 | 31:26.47 | 3:40.09 | 141497 | 158005 7 | 35:06.56 | 2:43.31 | 158006 | 170261 8 | 37:50.12 | 7:17.11 | 170262 | 203047 9 | 45:07.23 | 5:18.66 | 203048 | 226963 10 | 50:26.14 | 4:08.60 | 226964 | 245623 11 | 54:34.74 | 5:46.43 | 245624 | 271616 12 | 60:21.42 | 6:32.64 | 271617 | 301080

Range status and errors

Selected range

Filename H:\Descargas soulseek\James Newton Howard - The last airbender.wav

Peak level 98.7 % Range quality 100.0 % Test CRC 3143C03E Copy CRC 3143C03E Copy OK

No errors occurred

End of status report
 
REM GENRE SoundtrackREM DATE 2010REM DISCID A50FAD0CREM COMMENT "ExactAudioCopy v0.99pb4"PERFORMER "James Newton Howard"TITLE "The last airbender"FILE "James Newton Howard - The last airbender.wv" WAVE TRACK 01 AUDIO TITLE "Airbender suite" PERFORMER "James Newton Howard" INDEX 00 00:00:00 INDEX 01 00:01:11 TRACK 02 AUDIO TITLE "Earthbenders" PERFORMER "James Newton Howard" INDEX 00 11:15:67 INDEX 01 11:18:00 TRACK 03 AUDIO TITLE "The avatar has returned" PERFORMER "James Newton Howard" INDEX 00 17:10:03 INDEX 01 17:11:45 TRACK 04 AUDIO TITLE "The four elements test" PERFORMER "James Newton Howard" INDEX 00 21:53:52 INDEX 01 21:54:37 TRACK 05 AUDIO TITLE "Journey to the Northern water tribe" PERFORMER "James Newton Howard" INDEX 00 27:24:49 INDEX 01 27:25:02 TRACK 06 AUDIO TITLE "Hall of avatars" PERFORMER "James Newton Howard" INDEX 00 31:25:44 INDEX 01 31:26:47 TRACK 07 AUDIO TITLE "Prologue" PERFORMER "James Newton Howard" INDEX 00 35:05:69 INDEX 01 35:06:56 TRACK 08 AUDIO TITLE "The blue spirit" PERFORMER "James Newton Howard" INDEX 00 37:49:15 INDEX 01 37:50:12 TRACK 09 AUDIO TITLE "The spirit world" PERFORMER "James Newton Howard" INDEX 00 45:06:31 INDEX 01 45:07:23 TRACK 10 AUDIO TITLE "We could be friends" PERFORMER "James Newton Howard" INDEX 00 50:25:26 INDEX 01 50:26:14 TRACK 11 AUDIO TITLE "We are now the gods" PERFORMER "James Newton Howard" INDEX 00 54:34:30 INDEX 01 54:34:74 TRACK 12 AUDIO TITLE "Flow like water" PERFORMER "James Newton Howard" INDEX 00 60:20:42 INDEX 01 60:21:42
 
AUDIOCHECKER v2.0 beta (build 457) - by Dester - opdester@freemail.hu~~~~~~~~~~~~~~~~~~~~~~~~~~~~~~~~~~-=== НЕ РЕДАКТИРУЙТЕ ЭТОТ ФАЙЛ! ===-

Путь: ...\Score

1 -=- James Newton Howard - The last airbender.wav -=- CDDA (100%)

35353876


Трекер:  [ 19-Дек-2010 15:35 ]

  

Скачать .torrent

Размер .torrent файла 15 KB


Размер: 353 MB
Хэш (hash) релиза: 7dc347e33901446a58a8ff21621801d6a8258863

Торренты, похожие на Повелитель Стихий The Last Airbender скачать торрент

Форум Название Автор Размер S L Добавлен
Саундтреки к фильмам и мультфильмам (mp3) ·· (Score) Повелитель Стихий / The Last Airbender (by James Newton Howard) - 2010, MP3 (tracks), 320 kbps Солнышко 160667555153 MB 0 0 1292265666

21:41

13-Дек-10

bot

Топик был перенесен в форум Саундтреки к фильмам и мультфильмам (lossless)

Перенес AqvaGen

Хотите добавить комментарий к записи скачать торрент Повелитель Стихий The Last Airbender

!Обратная связь