VA - The Sopranos torrent

347 MB   |    :  7 1    |    .torrent :  92    |   
1  
   
...
 

Galfimbul

avatar Galfimbul


The Sopranos (Music From The HBO Original Series)

: Soundtrack
: 1999
: Sony, CK 63911
: FLAC
: tracks+.cue
: lossless
: 54:16

:
01. A3 - Woke Up This Morning (4:05)
02. R.L. Burnside - It's Bad You Know (4:43)
03. Frank Sinatra - It Was A Very Good Year (4:28)
04. Bob Dylan - Gotta Serve Somebody (5:20)
05. Little Steven & The Disciples of Soul - Inside of Me (5:02)
06. Cream - I Feel Free (2:51)
07. Them Featuring Van Morrison - Mystic Eyes (2:41)
08. Bruce Springsteen - State Trooper (3:12)
09. Bo Diddley - I'm A Man (2:45)
10. Elvis Costello & The Attractions - Complicated Shadows (4:44)
11. Nick Lowe - The Beast In Me (2:29)
12. Los Lobos - Viking (3:29)
13. Wyclef Jean Featuring G&B (The Product) - Blood Is Thicker Than Water (4:11)
14. Eurythmics - I've Tried Everything (4:17)
[code]EAC extraction logfile from 16. July 2007, 21:33 for CD
Various Artists / The Sopranos - Music from the HBO Original Series

Used drive : LITE-ON DVDRW SHM-165P6S Adapter: 4 ID: 0
Read mode : Secure with NO C2, accurate stream, disable cache
Read offset correction : 6
Overread into Lead-In and Lead-Out : No

Used output format : C:\Program Files\FLAC\flac.exe (User Defined Encoder)
128 kBit/s
Additional command line options : -V -8 -T "artist=%a" -T "title=%t" -T "album=%g" -T "date=%y" -T "tracknumber=%n" -T "genre=%m" %s

Other options :
Fill up missing offset samples with silence : Yes
Delete leading and trailing silent blocks : No
Installed external ASPI interface

Track 1
Filename C:\Documents and Settings\Administrator\Desktop\the Sopranos - Music From The HBO Original Series - (1999) [FLAC]\01 - A3 - Woke Up This Morning.wav

Pre-gap length 0:00:02.00

Peak level 97.6 %
Track quality 100.0 %
Test CRC BB454F0D
Copy CRC BB454F0D
Copy OK

Track 2
Filename C:\Documents and Settings\Administrator\Desktop\the Sopranos - Music From The HBO Original Series - (1999) [FLAC]\02 - R.L. Burnside - It's Bad You Know.wav

Pre-gap length 0:00:01.00

Peak level 99.5 %
Track quality 100.0 %
Test CRC 2D0CD6D9
Copy CRC 2D0CD6D9
Copy OK

Track 3
Filename C:\Documents and Settings\Administrator\Desktop\the Sopranos - Music From The HBO Original Series - (1999) [FLAC]\03 - Frank Sinatra - It Was A Very Good Year.wav

Pre-gap length 0:00:00.02

Peak level 93.9 %
Track quality 100.0 %
Test CRC 468AC8EA
Copy CRC 468AC8EA
Copy OK

Track 4
Filename C:\Documents and Settings\Administrator\Desktop\the Sopranos - Music From The HBO Original Series - (1999) [FLAC]\04 - Bob Dylan - Gotta Serve Somebody.wav

Pre-gap length 0:00:01.00

Peak level 99.8 %
Track quality 100.0 %
Test CRC 4CF463FC
Copy CRC 4CF463FC
Copy OK

Track 5
Filename C:\Documents and Settings\Administrator\Desktop\the Sopranos - Music From The HBO Original Series - (1999) [FLAC]\05 - Little Steven & The Disciples of Soul - Inside of Me.wav

Pre-gap length 0:00:00.06

Peak level 99.8 %
Track quality 100.0 %
Test CRC 6E5FEAE6
Copy CRC 6E5FEAE6
Copy OK

Track 6
Filename C:\Documents and Settings\Administrator\Desktop\the Sopranos - Music From The HBO Original Series - (1999) [FLAC]\06 - Cream - I Feel Free.wav

Pre-gap length 0:00:00.57

Peak level 99.8 %
Track quality 100.0 %
Test CRC E438052A
Copy CRC E438052A
Copy OK

Track 7
Filename C:\Documents and Settings\Administrator\Desktop\the Sopranos - Music From The HBO Original Series - (1999) [FLAC]\07 - Them Featuring Van Morrison - Mystic Eyes.wav

Pre-gap length 0:00:00.06

Peak level 96.4 %
Track quality 100.0 %
Test CRC E17C0AB2
Copy CRC E17C0AB2
Copy OK

Track 8
Filename C:\Documents and Settings\Administrator\Desktop\the Sopranos - Music From The HBO Original Series - (1999) [FLAC]\08 - Bruce Springsteen - State Trooper.wav

Pre-gap length 0:00:00.06

Peak level 94.5 %
Track quality 100.0 %
Test CRC 378D20E0
Copy CRC 378D20E0
Copy OK

Track 9
Filename C:\Documents and Settings\Administrator\Desktop\the Sopranos - Music From The HBO Original Series - (1999) [FLAC]\09 - Bo Diddley - I'm A Man.wav

Pre-gap length 0:00:00.30

Peak level 97.1 %
Track quality 100.0 %
Test CRC FB3E542A
Copy CRC FB3E542A
Copy OK

Track 10
Filename C:\Documents and Settings\Administrator\Desktop\the Sopranos - Music From The HBO Original Series - (1999) [FLAC]\10 - Elvis Costello & The Attractions - Complicated Shadows.wav

Pre-gap length 0:00:00.42

Peak level 99.8 %
Track quality 100.0 %
Test CRC 12CFE252
Copy CRC 12CFE252
Copy OK

Track 11
Filename C:\Documents and Settings\Administrator\Desktop\the Sopranos - Music From The HBO Original Series - (1999) [FLAC]\11 - Nick Lowe - The Beast In Me.wav

Pre-gap length 0:00:00.66

Peak level 89.3 %
Track quality 100.0 %
Test CRC 487324DE
Copy CRC 487324DE
Copy OK

Track 12
Filename C:\Documents and Settings\Administrator\Desktop\the Sopranos - Music From The HBO Original Series - (1999) [FLAC]\12 - Los Lobos - Viking.wav

Pre-gap length 0:00:00.93

Peak level 99.8 %
Track quality 100.0 %
Test CRC 85D21769
Copy CRC 85D21769
Copy OK

Track 13
Filename C:\Documents and Settings\Administrator\Desktop\the Sopranos - Music From The HBO Original Series - (1999) [FLAC]\13 - Wyclef Jean Featuring G&B (The Product) - Blood Is Thicker Than Water.wav

Pre-gap length 0:00:00.04

Peak level 94.9 %
Track quality 100.0 %
Test CRC 959BB8D1
Copy CRC 959BB8D1
Copy OK

Track 14
Filename C:\Documents and Settings\Administrator\Desktop\the Sopranos - Music From The HBO Original Series - (1999) [FLAC]\14 - Eurythmics - I've Tried Everything.wav

Pre-gap length 0:00:00.06

Peak level 95.6 %
Track quality 100.0 %
Test CRC 0033221F
Copy CRC 0033221F
Copy OK

No errors occured

End of status report


 ·  , , FAQ-
:  [ 07--2011 23:00 ]

  

.torrent

.torrent 30 KB


: 347 MB
(hash) : 7362a3c59be9f10ad275c4762265ca45c4e70367
··
...

VA - The Sopranos . !

!